.
Авторизация | Регистрация
» » Факап, или Хуже не бывает / Nicht mein Tag (2014) BDRip 720p от KinoGadget | iPad скачать торрент бесплатно




    Факап, или Хуже не бывает / Nicht mein Tag (2014) BDRip 720p от KinoGadget | iPad скачать торрент бесплатно

    Опубликовал: Админ | Дата: 22-06-2015, 05:13 | Просмотров: 185



    Создали в: 2014
    Снималось в: Германия
    Категория жанра: боевик, комедия, криминал, приключения
    Время просмотра: 01: 50: 16
    Перевод текста: Дублированный
    Главный режиссер: Петер Торварт

    Актеры
    Мориц Бляйбтрой, Аксель Штайн, Жасмин Герат, Анна Мария Мюэ, Неля Кипер, Бен Рюдингер, Касэм Ходжа, Беким Гури, Тобиас Нид
    Описание: Тиль Райнер — банковский клерк 30-ти лет. Каждый новый день его жизни похож на предыдущий. Отношения с супругой больше напоминают привычку. Но неожиданно происходит то, что позволяет выбраться ему из повседневной рутины. Тиля захватывает в заложники грабитель банка, в котором наш герой узнает заявителя по кредиту — Наппо.
    Полиция разрабатывает план перехват, устанавливает блокпосты, поэтому Наппо решает спрятать заложника в багажник и исчезнуть с награбленным! Но все идет не по плану и Наппо скрывается вместе с Тиллем! После того как шок от случившегося немного проходит, Тиль забывает про какое-либо благоразумие и погружается с головой в приключения вместе со своим похитителем…

    Информация о видео кодек: MPEG-4 AVC
    Качество фильма: BDRip 720p
    Параметры Видео: 1280x544, 25.000 fps; ~2 345 kbps avg
    Параметры Звука: 44.1 KHz, AAC, ~150.00 kbps avg, 2ch
    Тип видео: mp4
    Автор рипа:
    Релиз-группа:

    Meta Tags


    MI
    General
    Complete name : E: Fakap, _ili_Xuzhe_ne_byvaet.2014.D.BDRip.720p_KinoGadget.mp4
    Format : MPEG-4
    Format profile : Base Media
    Codec ID : isom
    File size : 1.93 GiB
    Duration : 1h 50mn
    Overall bit rate mode : Variable
    Overall bit rate : 2 502 Kbps
    Movie name : Факап, или Хуже не бывает
    Performer : Петер Торварт
    Genre : Action, Adventure, Comedy
    ContentType : Short Film
    Recorded date : 2014
    Encoded date : UTC 2015-06-21 16: 33: 40
    Tagged date : UTC 2015-06-21 16: 48: 09
    Cover : Yes
    LongDeion : Тиль Райнер — банковский клерк 30-ти лет. Каждый новый день его жизни похож на предыдущий. Отношения с супругой больше напоминают привычку. Но неожиданно происходит то, что позволяет выбраться ему из повседневной рутины. Тиля захватывает в заложники грабитель банка, в котором наш герой узнает заявителя по кредиту — Наппо.
    HDVideo : Yes
    Video
    ID : 1
    Format : AVC
    Format/Info : Advanced Video Codec
    Format profile : High@L4.1
    Format settings, CABAC : Yes
    Format settings, ReFrames : 11 frames
    Codec ID : avc1
    Codec ID/Info : Advanced Video Coding
    Duration : 1h 50mn
    Bit rate : 2 345 Kbps
    Maximum bit rate : 11.5 Mbps
    Width : 1 280 pixels
    Height : 544 pixels
    Display aspect ratio : 2.35: 1
    Frame rate mode : Constant
    Frame rate : 25.000 fps
    Color space : YUV
    Chroma subsampling : 4: 2: 0
    Bit depth : 8 bits
    Scan type : Progressive
    Bits/(Pixel*Frame) : 0.135
    Stream size : 1.81 GiB (94%)
    Writing library : x264 core 146 r2538 121396c
    Encoding settings : cabac=1/ref=11/deblock=1: -1: -1/analyse=0x3: 0x133/me=umh/subme=9/psy=1/psy_rd=1.00: 0.00/mixed_ref=1/me_range=24/chroma_me=1/trellis=2/8x8dct=1/cqm=0/deadzone=21, 11/fast_pskip=1/chroma_qp_offset=-2/threads=3/lookahead_threads=1/sliced_threads=0/nr=0/decimate=1/interlaced=0/bluray_compat=0/constrained_intra=0/bframes=4/b_pyramid=2/b_adapt=2/b_bias=0/direct=3/weightb=1/open_gop=0/weightp=2/keyint=250/keyint_min=25/scenecut=40/intra_refresh=0/rc_lookahead=60/rc=crf/mbtree=1/crf=21.0/qcomp=0.60/qpmin=0/qpmax=69/qpstep=4/ip_ratio=1.40/aq=1: 1.50
    Encoded date : UTC 2015-06-18 08: 42: 17
    Tagged date : UTC 2015-06-21 16: 34: 37
    Audio
    ID : 2
    Format : AAC
    Format/Info : Advanced Audio Codec
    Format profile : LC
    Codec ID : 40
    Duration : 1h 50mn
    Bit rate mode : Variable
    Bit rate : 150 Kbps
    Maximum bit rate : 219 Kbps
    Channel count : 2 channels
    Channel positions : Front: L R
    Sampling rate : 44.1 KHz
    Compression mode : Lossy
    Stream size : 118 MiB (6%)
    Language : Russian
    Encoded date : UTC 2015-06-21 16: 34: 24
    Tagged date : UTC 2015-06-21 16: 34: 37

    Скриншоты


    Залил: KinoGadget

    Онлайн видео Факап, или Хуже не бывает


    Размер скачиваемого торрента: 1.93 GB (2069636507 Bytes)

    Факап, или Хуже не бывает/Nicht mein Tag (2014) BDRip 720p от KinoGadget | iPad
    загрузка...
    Рейтинг →
     (голосов: 1, оценка 4/5, голосовать можно 1 раз )

    Другие торренты по теме:

  • Факап, или Хуже не бывает (2014) HDRip скачать торрент бесплатно
  • Факап, или Хуже не бывает / Nicht mein Tag (2014) HDRip | iTunes скачать торрент бесплатно
  • Факап, или Хуже не бывает / Nicht mein Tag (2014) HDRip | iTunes скачать торрент бесплатно
  • Факап, или Хуже не бывает / Nicht mein Tag (2014) BDRip 720p | iTunes скачать торрент бесплатно
  • Факап, или Хуже не бывает / Nicht mein Tag (2014) HDRip | iTunes скачать торрент бесплатно
  • Факап, или Хуже не бывает / Nicht mein Tag (2014) HDRip-AVC | iTunes скачать торрент бесплатно
  • Факап, или Хуже не бывает / Nicht mein Tag (2014) HDRip от Scarabey | iTunes скачать торрент бесплатно
  • Факап, или Хуже не бывает / Nicht mein Tag (2014) HDRip от Scarabey | iTunes скачать торрент бесплатно


    • Комментарии (0):

      Информация

      Информация

        Посетители, находящиеся в группе Гости, не могут оставлять комментарии в данной новости.

        ↓ Меню



        ↓ Опрос

        А Вы добавили сайт в закладки?
        Да
        Не


        Top 10 за неделю (Фильмы)