.
Авторизация | Регистрация
» » Второй шанс / Danny Collins (2015) BDRip 1080p | iTunes скачать торрент бесплатно




    Второй шанс / Danny Collins (2015) BDRip 1080p | iTunes скачать торрент бесплатно

    Опубликовал: Админ | Дата: 22-06-2015, 05:14 | Просмотров: 175



    Детально о кино
    Русское название: Второй шанс
    Русское название в мировом прокате: Danny Collins
    Создали в: 2015
    Категория жанра: Драма, комедия, музыка
    Снималось в: США, Big Indie Pictures, ShivHans Pictures
    Главный режиссер: Дэн Фогельман

    Актеры
    Аль Пачино, Аннетт Бенинг, Дженнифер Гарнер, Бобби Каннавейл, Кристофер Пламмер, Мелисса Беноист, Ник Офферман, Джош Пек, Арти Манн, Катарина Час

    Сюжет фильма

    Когда-то песни Дэнни Коллинза обожал весь мир. Однако уже много лет он ничего не пишет, почивая на лаврах былой славы. Но однажды музыканта находит адресованное ему много лет назад письмо от …Джона Леннона. И это переворачивает всю его жизнь.
    Файл
    Качество фильма: BDRip (1080p)
    Информация о видео: MPEG-4 AVC, 14800 Кбит/с, 1920x800
    Информация о звуке: Русский (AC3, 6 ch, 384 Кбит/с), английский (DTS, 6 ch, 1510 Кбит/с)
    Размер скачиваемого торрента: 12.73 ГБ
    Время просмотра: 01: 47: 10
    Перевод текста: Дублированный iTunes
    Субтитры: Английские
    MI
    бщее
    Уникальный идентификатор : 180753569235871743714052623635864218350 (0x87FBDF03FD4A7CC8BE9E40FF00C1EAEE)
    Полное имя : D: РелизыDanny.Collins.2015.1080p.BluRay.DTS.x264.HDAccess.mkv
    Формат : Matroska
    Версия формата : Version 2
    Размер файла : 12, 7 Гбайт
    Продолжительность : 1 ч. 47 м.
    Общий поток : 17, 0 Мбит/сек
    Название фильма : Danny Collins 2015
    Дата кодирования : UTC 2015-06-21 19: 53: 28
    Программа кодирования : mkvmerge v7.9.0 (;Birds;) 64bit
    Библиотека кодирования : libebml v1.3.1 + libmatroska v1.4.2
    Видео
    Идентификатор : 1
    Формат : AVC
    Формат/Информация : Advanced Video Codec
    Профиль формата : High@L4.1
    Параметр CABAC формата : Да
    Параметр ReFrames формата : 5 кадров
    Идентификатор кодека : V_MPEG4/ISO/AVC
    Продолжительность : 1 ч. 47 м.
    Битрейт : 14, 8 Мбит/сек
    Ширина : 1920 пикселей
    Высота : 800 пикселей
    Соотношение сторон : 2, 40: 1
    Режим частоты кадров : Постоянный
    Частота кадров : 23, 976 кадра/сек
    Цветовое пространство : YUV
    Субдискретизация насыщенности : 4: 2: 0
    Битовая глубина : 8 бит
    Тип развёртки : Прогрессивная
    Бит/(Пиксели*Кадры) : 0.401
    Размер потока : 11, 1 Гбайт (87%)
    Заголовок : Danny Collins 2015
    Библиотека кодирования : x264 core 146 r2538 121396c
    Настройки программы : cabac=1/ref=5/deblock=1: -3: -3/analyse=0x3: 0x33/me=umh/subme=11/psy=1/psy_rd=1.00: 0.00/mixed_ref=1/me_range=32/chroma_me=1/trellis=2/8x8dct=1/cqm=0/deadzone=21, 11/fast_pskip=0/chroma_qp_offset=-2/threads=12/lookahead_threads=2/sliced_threads=0/nr=0/decimate=0/interlaced=0/bluray_compat=0/constrained_intra=0/bframes=9/b_pyramid=2/b_adapt=2/b_bias=0/direct=1/weightb=1/open_gop=0/weightp=2/keyint=240/keyint_min=23/scenecut=40/intra_refresh=0/rc=crf/mbtree=0/crf=17.5/qcomp=0.60/qpmin=0/qpmax=69/qpstep=4/ip_ratio=1.40/pb_ratio=1.30/aq=3: 0.90
    Язык : English
    Default : Да
    Forced : Нет
    Аудио #1
    Идентификатор : 2
    Формат : AC-3
    Формат/Информация : Audio Coding 3
    Расширение режима : CM (complete main)
    Параметр Endianness формата : Big
    Идентификатор кодека : A_AC3
    Продолжительность : 1 ч. 47 м.
    Вид битрейта : Постоянный
    Битрейт : 384 Кбит/сек
    Каналы : 6 каналов
    Расположение каналов : Front: L C R, Side: L R, LFE
    Частота : 48, 0 КГц
    Метод сжатия : С потерями
    Размер потока : 294 Мбайт (2%)
    Язык : Russian
    Default : Да
    Forced : Нет
    Аудио #2
    Идентификатор : 3
    Формат : DTS
    Формат/Информация : Digital Theater Systems
    Режим : 16
    Параметр Endianness формата : Big
    Идентификатор кодека : A_DTS
    Продолжительность : 1 ч. 47 м.
    Вид битрейта : Постоянный
    Битрейт : 1509 Кбит/сек
    Каналы : 6 каналов
    Расположение каналов : Front: L C R, Side: L R, LFE
    Частота : 48, 0 КГц
    Битовая глубина : 24 бит
    Метод сжатия : С потерями
    Размер потока : 1, 13 Гбайт (9%)
    Язык : English
    Default : Нет
    Forced : Нет
    Текст #1
    Идентификатор : 4
    Формат : UTF-8
    Идентификатор кодека : S_TEXT/UTF8
    Идентификатор кодека/Информация : UTF-8 Plain Text
    Язык : English
    Default : Нет
    Forced : Нет
    Текст #2
    Идентификатор : 5
    Формат : UTF-8
    Идентификатор кодека : S_TEXT/UTF8
    Идентификатор кодека/Информация : UTF-8 Plain Text
    Заголовок : SDH
    Язык : English
    Default : Нет
    Forced : Нет
    Меню
    00: 00: 00.000 : en: 00: 00: 00.000
    00: 03: 55.944 : en: 00: 03: 55.944
    00: 11: 27.437 : en: 00: 11: 27.437
    00: 16: 10.428 : en: 00: 16: 10.428
    00: 19: 58.656 : en: 00: 19: 58.656
    00: 24: 40.646 : en: 00: 24: 40.646
    00: 29: 53.375 : en: 00: 29: 53.375
    00: 36: 10.335 : en: 00: 36: 10.335
    00: 40: 14.370 : en: 00: 40: 14.370
    00: 44: 05.518 : en: 00: 44: 05.518
    00: 49: 00.813 : en: 00: 49: 00.813
    00: 55: 55.477 : en: 00: 55: 55.477
    01: 02: 47.514 : en: 01: 02: 47.514
    01: 07: 23.498 : en: 01: 07: 23.498
    01: 14: 47.650 : en: 01: 14: 47.650
    01: 20: 12.850 : en: 01: 20: 12.850
    01: 25: 11.773 : en: 01: 25: 11.773
    01: 30: 40.393 : en: 01: 30: 40.393
    01: 36: 00.838 : en: 01: 36: 00.838
    01: 41: 24.829 : en: 01: 41: 24.829

    Скриншоты




    Онлайн видео Второй шанс


    Размер скачиваемого торрента: 12.73 GB (13664130084 Bytes)

    Второй шанс/Danny Collins (2015) BDRip 1080p | iTunes
    загрузка...
    Рейтинг →
     (голосов: 1, оценка 4/5, голосовать можно 1 раз )

    Другие торренты по теме:



      Комментарии (0):

      Информация

      Информация

        Посетители, находящиеся в группе Гости, не могут оставлять комментарии в данной новости.

        ↓ Меню



        ↓ Опрос

        А Вы добавили сайт в закладки?
        Да
        Не


        Top 10 за неделю (Фильмы)