.
Авторизация | Регистрация
Хочешь лучшие торренты? Добавь свой email!
Добавить
» » Ганмен / The Gunman (2015) BDRip 1080p | A торрент скачать бесплатно




    Ганмен / The Gunman (2015) BDRip 1080p | A торрент скачать бесплатно

    Опубликовал: Админ | Дата: 23-06-2015, 05:13 | Просмотров: 149




    Детально о кино
    Русское название: Ганмен
    Русское название в мировом прокате: The Gunman
    Создали в: 2015
    Категория жанра: боевик, триллер, драма, криминал, детектив
    Главный режиссер: Пьер Морель

    Актеры
    Шон Пенн, Хавьер Бардем, Рэй Уинстон, Жазмин Тринка, Идрис Эльба, Марк Райлэнс, Петер Францен, Билли Биллинхэм, Дэниэл Адегбойега, Адэ Ойефесо


    Сюжет фильма
    Джим Террье — ганмен, международный наемник высочайшего класса. Но когда в Компании начинают подчищать хвосты, Джим сам становится мишенью. Чтобы выжить, Джим угрожает обнародовать имеющийся у него компромат и обращается к бывшему напарнику Феликсу. Однако у Феликса есть свои резоны желать, чтобы Джим Террье исчез из его жизни. Это Энни — женщина, которую они оба любят. За Джимом начинается смертельная охота по всей Европе, и у него не остается другого выбора, кроме как дать бой — один против всех.



    Снималось в: США, Испания, Великобритания, Франция/StudioCanal, Anton Capital Entertainment (ACE), Silver Pictures
    Время просмотра: 01: 55: 40
    Перевод текста: Авторский (одноголосый, закадровый)- Д. Есарев

    Файл
    Качество фильма: BDRip 1080p
    Тип видео: MKV
    Информация о видео: MPEG4/AVC, 8400 Кбит/сек, 1920х800 (2.40: 1), 23.976 кадра/сек
    Информация о звуке 1: АС3, 6 каналов, 384 Кбит/cек | Русский - Д. Есарев
    Информация о звуке 2: АС3, 6 каналов, 384 Кбит/cек | Русский - Д. Есарев - не норматив
    Информация о звуке 3: АС3, 6 каналов, 640 Кбит/cек | Английский
    Субтитры: Английские (Full, SDH, SDH-Colored)
    Навигация по главам: Есть

    MediaInfo:
    Общее
    Уникальный идентификатор : 182932712492649598375928685753340434405 (0x899F8F12BE68CAFDB70F1CEAFA0E97E5)
    Полное имя : The Gunman. (2015) BDRip 1080p.mkv
    Формат : Matroska
    Версия формата : Version 2
    Размер файла : 7, 93 Гбайт
    Продолжительность : 1 ч. 55 м.
    Общий поток : 9817 Кбит/сек
    Название фильма : The Gunman. 2015
    Дата кодирования : UTC 2015-06-22 10: 52: 27
    Программа кодирования : mkvmerge v5.8.0 (;No Sleep/Pillow;) built on Sep 2 2012 15: 37: 04
    Библиотека кодирования : libebml v1.2.3 + libmatroska v1.3.0

    Видео
    Идентификатор : 1
    Формат : AVC
    Формат/Информация : Advanced Video Codec
    Профиль формата : High@L4.1
    Параметр CABAC формата : Да
    Параметр ReFrames формата : 4 кадра
    Идентификатор кодека : V_MPEG4/ISO/AVC
    Продолжительность : 1 ч. 55 м.
    Битрейт : 8400 Кбит/сек
    Ширина : 1920 пикселей
    Высота : 800 пикселей
    Соотношение сторон : 2, 40: 1
    Режим частоты кадров : Постоянный
    Частота кадров : 23, 976 кадра/сек
    Цветовое пространство : YUV
    Субдискретизация насыщенности : 4: 2: 0
    Битовая глубина : 8 бит
    Тип развёртки : Прогрессивная
    Бит/(Пиксели*Кадры) : 0.228
    Размер потока : 6, 64 Гбайт (84%)
    Заголовок : MTeam
    Библиотека кодирования : x264 core 142 r2431+42 c69a006 tMod 8-bit@4: 2: 0 X86_64
    Настройки программы : cabac=1/ref=4/deblock=1: -3: -3/analyse=0x3: 0x113/me=umh/subme=11/psy=1/fade_compensate=0.00/psy_rd=1.05: 0.10/mixed_ref=1/me_range=48/chroma_me=1/trellis=2/8x8dct=1/cqm=0/deadzone=21, 11/fast_pskip=0/chroma_qp_offset=-2/threads=12/lookahead_threads=1/sliced_threads=0/nr=0/decimate=1/interlaced=0/bluray_compat=0/constrained_intra=0/fgo=0/bframes=6/b_pyramid=2/b_adapt=2/b_bias=0/direct=3/weightb=1/open_gop=0/weightp=2/keyint=250/keyint_min=23/scenecut=40/intra_refresh=0/rc_lookahead=40/rc=2pass/mbtree=0/bitrate=8400/ratetol=2.0/qcomp=0.60/qpmin=0: 0: 0/qpmax=69: 69: 69/qpstep=4/cplxblur=20.0/qblur=0.5/vbv_maxrate=50000/vbv_bufsize=45000/nal_hrd=none/filler=0/ip_ratio=1.40/pb_ratio=1.30/aq=4: 1.00/aq-sensitivity=10.00/aq-factor=1.00: 1.00: 1.00/aq2=0/aq3=0
    Язык : English
    Default : Да
    Forced : Нет

    Аудио #1
    Идентификатор : 2
    Формат : AC-3
    Формат/Информация : Audio Coding 3
    Расширение режима : CM (complete main)
    Параметр Endianness формата : Big
    Идентификатор кодека : A_AC3
    Продолжительность : 1 ч. 55 м.
    Вид битрейта : Постоянный
    Битрейт : 384 Кбит/сек
    Каналы : 6 каналов
    Расположение каналов : Front: L C R, Side: L R, LFE
    Частота : 48, 0 КГц
    Битовая глубина : 16 бит
    Метод сжатия : С потерями
    Размер потока : 318 Мбайт (4%)
    Заголовок : A | Д. Есарев
    Язык : Russian
    Default : Да
    Forced : Нет

    Аудио #2
    Идентификатор : 3
    Формат : AC-3
    Формат/Информация : Audio Coding 3
    Расширение режима : CM (complete main)
    Параметр Endianness формата : Big
    Идентификатор кодека : A_AC3
    Продолжительность : 1 ч. 55 м.
    Вид битрейта : Постоянный
    Битрейт : 384 Кбит/сек
    Каналы : 6 каналов
    Расположение каналов : Front: L C R, Side: L R, LFE
    Частота : 48, 0 КГц
    Битовая глубина : 16 бит
    Метод сжатия : С потерями
    Размер потока : 318 Мбайт (4%)
    Заголовок : A | Д. Есарев | Не норматив
    Язык : Russian
    Default : Нет
    Forced : Нет

    Аудио #3
    Идентификатор : 4
    Формат : AC-3
    Формат/Информация : Audio Coding 3
    Расширение режима : CM (complete main)
    Параметр Endianness формата : Big
    Идентификатор кодека : A_AC3
    Продолжительность : 1 ч. 55 м.
    Вид битрейта : Постоянный
    Битрейт : 640 Кбит/сек
    Каналы : 6 каналов
    Расположение каналов : Front: L C R, Side: L R, LFE
    Частота : 48, 0 КГц
    Битовая глубина : 16 бит
    Метод сжатия : С потерями
    Размер потока : 529 Мбайт (7%)
    Заголовок : Original
    Язык : English
    Default : Нет
    Forced : Нет

    Текст #1
    Идентификатор : 5
    Формат : UTF-8
    Идентификатор кодека : S_TEXT/UTF8
    Идентификатор кодека/Информация : UTF-8 Plain Text
    Заголовок : Full
    Язык : English
    Default : Нет
    Forced : Нет

    Текст #2
    Идентификатор : 6
    Формат : UTF-8
    Идентификатор кодека : S_TEXT/UTF8
    Идентификатор кодека/Информация : UTF-8 Plain Text
    Заголовок : SDH
    Язык : English
    Default : Нет
    Forced : Нет

    Текст #3
    Идентификатор : 7
    Формат : UTF-8
    Идентификатор кодека : S_TEXT/UTF8
    Идентификатор кодека/Информация : UTF-8 Plain Text
    Заголовок : SDH-Colored
    Язык : English
    Default : Нет
    Forced : Нет

    Меню
    00: 00: 00.000 : en: 00: 00: 00.000
    00: 04: 48.747 : en: 00: 04: 48.747
    00: 10: 29.963 : en: 00: 10: 29.963
    00: 14: 22.987 : en: 00: 14: 22.987
    00: 18: 00.788 : en: 00: 18: 00.788
    00: 23: 17.396 : en: 00: 23: 17.396
    00: 27: 53.130 : en: 00: 27: 53.130
    00: 34: 14.886 : en: 00: 34: 14.886
    00: 39: 51.139 : en: 00: 39: 51.139
    00: 45: 51.582 : en: 00: 45: 51.582
    00: 50: 19.934 : en: 00: 50: 19.934
    00: 58: 10.404 : en: 00: 58: 10.404
    01: 04: 37.165 : en: 01: 04: 37.165
    01: 08: 27.478 : en: 01: 08: 27.478
    01: 14: 44.230 : en: 01: 14: 44.230
    01: 21: 37.726 : en: 01: 21: 37.726
    01: 31: 18.223 : en: 01: 31: 18.223
    01: 38: 39.330 : en: 01: 38: 39.330
    01: 45: 34.370 : en: 01: 45: 34.370
    01: 49: 15.841 : en: 01: 49: 15.841



    Релиз подготовил: |

    Онлайн видео Ганмен


    Размер скачиваемого торрента: 7.93 GB (8516299413 Bytes)

    Ганмен/The Gunman (2015) BDRip 1080p | A
    загрузка...
    Рейтинг →
     (голосов: 1, оценка 4/5, голосовать можно 1 раз )

    Другие торренты по теме:

  • Ганмен (2015) HDRip
  • Ганмен / The Gunman (2015) WEB-DLRip | Звук с TS
  • Ганмен / The Gunman (2015) WEB-DL 720p | Звук с TS
  • Ганмен / The Gunman (2015) WEB-DLRip | Звук с TS
  • Ганмен / The Gunman (2015) HDRip | Есарев
  • Ганмен / The Gunman (2015) HDRip | Есарев
  • Ганмен / The Gunman (2015) BDRip 720p | Есарев
  • Ганмен / The Gunman (2015) HDRip-AVC от ExKinoRay | Есарев


    • Комментарии (0):

      Информация

      Информация

        Посетители, находящиеся в группе Гости, не могут оставлять комментарии в данной новости.

        ↓ Меню



        ↓ Опрос

        А Вы добавили сайт в закладки?
        Да
        Не


        Top 10 за месяц (Фильмы)