.
Авторизация | Регистрация
Хочешь лучшие торренты? Добавь свой email!
Добавить




Однажды (2015) WEB-DLRip AVC | iTunes торрент скачать бесплатно

Опубликовал: Админ | Дата: 24-06-2015, 05:09 | Просмотров: 164




Детально о кино
Русское название в мировом прокате: Однажды
Создали в: 2015
Категория жанра: Комедия, приключения
Главный режиссер: Ренат Давлетьяров

Актеры
Сергей Гармаш, Андрей Мерзликин, Юрий Дейнекин, Дарья Мельникова, Никита Калинин, Александр Мельников, Артур Мухамадияров, Михаил Тройник, Кристина Бабушкина, Аполлинария Муравьёва, Алена Каримская, Анатолий Шульев

Сюжет фильма

Однажды Лешка понял, что влюблен. В бывшую девушку брата. Ему еще не было и 16-ти, а ей уже исполнилось 17. Она носила очень короткую юбку и ходила гулять с ребятами из другого района. Впереди у Лешки был последний звонок, последний год жизни в городке и первое серьезное испытание. Он согласился с Таней на пари: проигравший обязан исполнить любое желание победителя.

Снималось в: Россия
Киностудия: Реал-Дакота
Время просмотра: 01: 41: 06
Язык: Русский iTunes
Файл
Тип видео: MPEG-4 AVC
Качество фильма: WEB-DLRip (AVC)
Информация о видео: 1682 Кбит/с, 1020x424
Информация о звуке: АС3, 6 ch, 384 Кбит/с

M/I
General
Unique ID : 265428797618078765210547480363030858315 (0xC7AFBA18F8B8018D4287C427421CCA4B)
Complete name : F: Однажды.2015.O.WEB-DLRIP_AVC.-=DoMiNo=-.mkv
Format : Matroska
Format version : Version 4/Version 2
File size : 1.46 GiB
Duration : 1h 41mn
Overall bit rate : 2 067 Kbps
Writing application : XviD4PSP 7.0.143
Writing library : Lavf56.25.101
ENCODING_INFO : MATROSKA, WEBM MKV/H264 X264 VBR-2P 1682kbps Custom/AC3 COPY
Video
ID : 1
Format : AVC
Format/Info : Advanced Video Codec
Format profile : High@L4.1
Format settings, CABAC : Yes
Format settings, ReFrames : 12 frames
Codec ID : V_MPEG4/ISO/AVC
Duration : 1h 41mn
Bit rate : 1 682 Kbps
Width : 1 020 pixels
Height : 424 pixels
Display aspect ratio : 2.40: 1
Frame rate mode : Constant
Frame rate : 24.000 fps
Color space : YUV
Chroma subsampling : 4: 2: 0
Bit depth : 8 bits
Scan type : Progressive
Bits/(Pixel*Frame) : 0.162
Stream size : 1.16 GiB (79%)
Writing library : x264 core 146 r2538M 121396c
Encoding settings : cabac=1/ref=12/deblock=1: -3: -3/analyse=0x3: 0x133/me=umh/subme=11/psy=1/psy_rd=1, 00: 0, 50/mixed_ref=1/me_range=32/chroma_me=1/trellis=2/8x8dct=1/cqm=0/deadzone=21, 11/fast_pskip=0/chroma_qp_offset=-4/threads=12/lookahead_threads=3/sliced_threads=0/nr=0/decimate=1/interlaced=0/bluray_compat=0/constrained_intra=0/bframes=11/b_pyramid=2/b_adapt=2/b_bias=0/direct=3/weightb=1/open_gop=0/weightp=2/keyint=240/keyint_min=24/scenecut=40/intra_refresh=0/rc=2pass/mbtree=0/bitrate=1682/ratetol=1, 0/qcomp=0, 60/qpmin=3/qpmax=69/qpstep=4/cplxblur=20, 0/qblur=0, 5/ip_ratio=1, 40/pb_ratio=1, 30/aq=3: 1, 60
Language : English
Default : Yes
Forced : No
Color range : Limited
Color primaries : BT.709
Transfer characteristics : BT.709
Matrix coefficients : BT.709
Audio
ID : 2
Format : AC-3
Format/Info : Audio Coding 3
Mode extension : CM (complete main)
Format settings, Endianness : Big
Codec ID : A_AC3
Duration : 1h 41mn
Bit rate mode : Constant
Bit rate : 384 Kbps
Channel(s) : 6 channels
Channel positions : Front: L C R, Side: L R, LFE
Sampling rate : 48.0 KHz
Bit depth : 32 bits
Compression mode : Lossy
Stream size : 278 MiB (19%)
Language : Russian
Default : Yes
Forced : No
Menu
00: 00: 00.000 : : Р“Рава 1
00: 05: 23.000 : : Р“Рава 2
00: 10: 50.000 : : Р“Рава 3
00: 15: 18.000 : : Р“Рава 4
00: 20: 21.000 : : Р“Рава 5
00: 23: 58.000 : : Р“Рава 6
00: 28: 07.000 : : Р“Рава 7
00: 34: 37.000 : : Р“Рава 8
00: 37: 21.000 : : Р“Рава 9
00: 41: 59.000 : : Р“Рава 10
00: 46: 05.000 : : Р“Рава 11
00: 50: 11.000 : : Р“Рава 12
00: 52: 51.000 : : Р“Рава 13
00: 55: 24.000 : : Р“Рава 14
01: 00: 43.000 : : Р“Рава 15
01: 06: 39.000 : : Р“Рава 16
01: 10: 21.000 : : Р“Рава 17
01: 13: 36.000 : : Р“Рава 18
01: 17: 07.000 : : Р“Рава 19
01: 21: 18.000 : : Р“Рава 20
01: 24: 31.000 : : Р“Рава 21
01: 30: 34.000 : : Р“Рава 22


Онлайн видео Однажды (2015) WEB-DLRip AVC


Размер скачиваемого торрента: 1.46 GB (1567805334 Bytes)

Однажды (2015) WEB-DLRip AVC | iTunes
загрузка...
Рейтинг →
 (голосов: 1, оценка 5/5, голосовать можно 1 раз )

Другие торренты по теме:

  • Однажды в сказке / Once Upon a Time (2012) WEB-DLRip | Невафильм
  • Однажды в Ирландии / The Guard (2011) BDRip-AVC | iPad
  • Однажды в Америке / Once Upon a Time in America (1984) BDRemux от HDCLUB и Youtracker | A | Extended Cut
  • Однажды в Марселе / MR 73 (2008) BDRip 720p | A
  • OST - Однажды в Америке / Once Upon A Time In America (1984) MP3
  • Однажды в Луизиане / Louisiana Adventure (2013) PC | RePack by SeregA-Lus
  • Однажды укушенный / Once Bitten (1985) HDTVRip 720p от R.G. GoldenShara
  • Однажды эта боль принесет тебе пользу / Someday This Pain Will Be Useful to You (2011) HDRip | P2


    • Комментарии (0):

      Информация

      Информация

        Посетители, находящиеся в группе Гости, не могут оставлять комментарии в данной новости.

        ↓ Меню



        ↓ Опрос

        А Вы добавили сайт в закладки?
        Да
        Не


        Top 10 за месяц (Фильмы)