.
Авторизация | Регистрация
» » Танго и Кэш / Tango Cash (1989) BDRip 720p от HQ-ViDEO | D скачать торрент бесплатно




    Танго и Кэш / Tango Cash (1989) BDRip 720p от HQ-ViDEO | D скачать торрент бесплатно

    Опубликовал: Админ | Дата: 24-06-2015, 05:14 | Просмотров: 176



    Танго и Кэш/Tango Cash (1989) BDRip 720p
    Релиз от HQ-ViDEO

    Детально о кино
    Русское название: Танго и Кэш
    Русское название в мировом прокате: Tango Cash
    Создали в: 1989
    Категория жанра: боевик, триллер, комедия, криминал
    Главный режиссер: Андрей Кончаловский /Andrey Konchalovskiy/

    Актеры
    Сильвестр Сталлоне /Sylvester Stallone/, Курт Рассел /Kurt Russell/ , Тери Хэтчер /Teri Hatcher/, Джек Пэланс /Jack Palance/, Брайон Джеймс /Brion James/, Джеймс Хонг /James Hong/, Марк Алаймо /Marc Alaimo/, Филип Тан /Philip Tan/, Майкл Дж. Поллард /Michael J. Pollard/, Роберт З’Дар /Robert Z;Dar/...

    Сюжет фильма

    Герои фильма — Танго и Кэш. Эти соперничающие друг с другом копы обладают одной общей чертой: каждый думает, что он самый лучший, и каждый имеет бесспорные доказательства этого.

    Снималось в: США
    Время просмотра: 01: 43: 46
    Перевод текста: Русский дублированный + Оригинальная, английская дорожка
    Файл
    Кодек для видео: MKV, H.264
    Качество фильма: BDRip 720p (Source: Blu-ray Disc)
    Информация о видео: 5026 kbps; 0.306 bit/pixel; 1280 x 536; 2.35: 1; 23.976 fps
    Информация о звуке #1: AC3 Dolby Digital; 448.00 kbps, 6 Ch - RUS DUB
    Информация о звуке #2: AC3 Dolby Digital; 448.00 kbps, 6 Ch - ENG
    Субтитры: Русские, Английские.
    Размер скачиваемого торрента: 4.38 GB
    SAMPLE/скачать с Яндекс Диск
    MediaInfo

    General
    Complete name : Tango.I.Kesh.1989.DUAL.BDRip.720p.h264.AC3.-HQ-ViDEO.mkv
    Format : Matroska
    File size : 4.38 GiB
    Duration : 1h 43mn
    Overall bit rate : 6 042 Kbps
    Movie name : Tango Cash (1989)
    Encoded date : UTC 2011-03-28 08: 56: 02
    Writing application : mkvmerge v3.3.0 (;Language;) built on Mar 24 2010 14: 59: 24
    Writing library : libebml v0.8.0 + libmatroska v0.9.0
    Video
    ID : 1
    Format : AVC
    Format/Info : Advanced Video Codec
    Format profile : High@L4.1
    Format settings, CABAC : Yes
    Format settings, ReFrames : 6 frames
    Codec ID : V_MPEG4/ISO/AVC
    Duration : 1h 43mn
    Bit rate mode : Variable
    Bit rate : 5 026 Kbps
    Width : 1 280 pixels
    Height : 536 pixels
    Display aspect ratio : 2.35: 1
    Frame rate : 23.976 fps
    Color space : YUV
    Chroma subsampling : 4: 2: 0
    Bit depth : 8 bits
    Scan type : Progressive
    Bits/(Pixel*Frame) : 0.306
    Stream size : 3.64 GiB (83%)
    Title : Encoded by GYN
    Audio #1
    ID : 2
    Format : AC-3
    Format/Info : Audio Coding 3
    Mode extension : CM (complete main)
    Codec ID : A_AC3
    Duration : 1h 43mn
    Bit rate mode : Constant
    Bit rate : 448 Kbps
    Channel(s) : 6 channels
    Channel positions : Front: L C R, Side: L R, LFE
    Sampling rate : 48.0 KHz
    Bit depth : 16 bits
    Compression mode : Lossy
    Stream size : 333 MiB (7%)
    Title : DUB
    Language : Russian
    Audio #2
    ID : 3
    Format : AC-3
    Format/Info : Audio Coding 3
    Mode extension : CM (complete main)
    Codec ID : A_AC3
    Duration : 1h 43mn
    Bit rate mode : Constant
    Bit rate : 448 Kbps
    Channel(s) : 6 channels
    Channel positions : Front: L C R, Side: L R, LFE
    Sampling rate : 48.0 KHz
    Bit depth : 16 bits
    Compression mode : Lossy
    Stream size : 333 MiB (7%)
    Title : Original
    Language : English
    Text #1
    ID : 4
    Format : UTF-8
    Codec ID : S_TEXT/UTF8
    Codec ID/Info : UTF-8 Plain Text
    Language : Russian
    Text #2
    ID : 5
    Format : UTF-8
    Codec ID : S_TEXT/UTF8
    Codec ID/Info : UTF-8 Plain Text
    Language : English





    Релиз подготовил: HQ-ViDEO
    Автор рипа: GYN

    Онлайн видео Танго и Кэш


    Размер скачиваемого торрента: 4.38 GB (4702293022 Bytes)

    Танго и Кэш/Tango Cash (1989) BDRip 720p от HQ-ViDEO | D
    загрузка...
    Рейтинг →
     (голосов: 1, оценка 5/5, голосовать можно 1 раз )

    Другие торренты по теме:

  • В ритме танго (2006) DVDRip от Занавес торрент скачать бесплатно
  • Танго с убийцей / Assassination Tango (2002) HDTVRip 1080p от RG MixTorrent | P2 торрент скачать бесплатно
  • Танго и Кэш / Tango Cash (1989) BDRip-AVC от 0ptimus | D, P, A торрент скачать бесплатно
  • OST - Танго и Кэш / Tango Cash (1989) MP3 торрент скачать бесплатно
  • Последнее танго в Париже / Ultimo tango a Parigi / Last Tango in Paris (1972) BDRip-AVC от MediaClub торрент скачать бесплатно
  • Танго либре / Tango libre (2012) DVDRip | P торрент скачать бесплатно
  • Танго либре / Tango libre (2012) DVDRip от ExKinoRay | P торрент скачать бесплатно
  • Танго либре / Tango libre (2012) DVDRip-AVC от ExKinoRay | P торрент скачать бесплатно


    • Комментарии (0):

      Информация

      Информация

        Посетители, находящиеся в группе Гости, не могут оставлять комментарии в данной новости.

        ↓ Меню



        ↓ Опрос

        А Вы добавили сайт в закладки?
        Да
        Не


        Top 10 за неделю (Фильмы)