.
Авторизация | Регистрация
Хочешь лучшие торренты? Добавь свой email!
Добавить
» » Четвертый тенор / The 4th Tenor (2002) DVDRip | P торрент скачать бесплатно




    Четвертый тенор / The 4th Tenor (2002) DVDRip | P торрент скачать бесплатно

    Опубликовал: Админ | Дата: 24-06-2015, 05:15 | Просмотров: 125



    Детально о кино
    Русское название: Четвертый тенор
    Русское название в мировом прокате: The 4th Tenor
    Создали в: 2002
    Категория жанра: комедия, мелодрама, музыка
    Главный режиссер: Гарри Бейзил/Harry Basil

    Актеры
    Родни Дэйнджерфилд /Rodney Dangerfield/, Роберт Дави /Robert Davi/, Аннабель Гурвич /Annabelle Gurwitch/, Анита Де Симон /Anita De Simone/, Чарлз Флайшер /Charles Fleischer/, Ричард Либертини /Richard Libertini/

    Сюжет фильма

    Преуспевающий владелец итальянского ресторанчика Лупо никогда не стремился стать высококлассным певцом. Мало того его вокал был настолько ужасен, что и думать о подобном не смел. Но, что называется, судьба заставила. Точнее не судьба, а сердце — неожиданно для самого себя Лупо отчаянно влюбился в сладкоголосую официантку, которой он дал шанс выступить у себя в заведении в качестве певицы.
    Но вот беда — девица оказалась с характером и поставила Лупо непреодолимое условие — она ответит ему взаимностью, но только в том случае если он научится петь настолько хорошо, что станет всемирно известным 4-ым тенором, сравнявшись с такими знаменитостями, как Поваротти, Доминго и Каррерас.

    Снималось в: США
    Время просмотра: 01: 33: 32
    Перевод текста: Профессиональный (многоголосый, закадровый)
    Файл
    Кодек для видео: DivX/MP3
    Качество фильма: DVDRip
    Информация о видео: DivX, 608х448 (1.35: 1), 25 fps, ~ 952 kbps, 0.14 bit/pixel
    Информация о звуке: MP3, 44 kHz, 2 ch, ~96 kbps
    Скриншоты
    Screenshots
    MediaInfo
    General
    Complete name : Chetverty.Tenor.avi
    Format : AVI
    Format/Info : Audio Video Interleave
    File size : 700 MiB
    Duration : 1h 33mn
    Overall bit rate : 1 048 Kbps
    Writing application : VirtualDubMod 1.4.13
    Writing library : VirtDub b.14328 BeerBarrel
    Video
    ID : 0
    Format : MPEG-4 Visual
    Format settings, BVOP : 2
    Format settings, QPel : No
    Format settings, GMC : No warppoints
    Format settings, Matrix : Default (H.263)
    Codec ID : DX50
    Codec ID/Hint : DivX 5
    Duration : 1h 33mn
    Bit rate : 942 Kbps
    Width : 608 pixels
    Height : 448 pixels
    Display aspect ratio : 4: 3
    Frame rate : 25.000 fps
    Color space : YUV
    Chroma subsampling : 4: 2: 0
    Bit depth : 8 bits
    Scan type : Progressive
    Compression mode : Lossy
    Bits/(Pixel*Frame) : 0.138
    Stream size : 629 MiB (90%)
    Writing library : DivX 1328m
    Audio
    ID : 1
    Format : MPEG Audio
    Format version : Version 1
    Format profile : Layer 3
    Codec ID : 55
    Codec ID/Hint : MP3
    Duration : 1h 33mn
    Bit rate mode : Constant
    Bit rate : 96.0 Kbps
    Channel(s) : 2 channels
    Sampling rate : 44.1 KHz
    Compression mode : Lossy
    Stream size : 64.1 MiB (9%)
    Alignment : Split accross interleaves
    Interleave, duration : 40 ms (1.00 video frame)
    Interleave, preload duration : 499 ms


    Онлайн видео Четвертый тенор


    Размер скачиваемого торрента: 699.70 MB (733683712 Bytes)

    Четвертый тенор/The 4th Tenor (2002) DVDRip | P
    загрузка...
    Рейтинг →
     (голосов: 1, оценка 5/5, голосовать можно 1 раз )

    Другие торренты по теме:



      Комментарии (0):

      Информация

      Информация

        Посетители, находящиеся в группе Гости, не могут оставлять комментарии в данной новости.

        ↓ Меню



        ↓ Опрос

        А Вы добавили сайт в закладки?
        Да
        Не


        Top 10 за месяц (Фильмы)