.
Авторизация | Регистрация
Хочешь лучшие торренты? Добавь свой email!
Добавить
» » Кузей Гюней / Kuzey Gney (2013) HDTVRip | L торрент скачать бесплатно




    Кузей Гюней / Kuzey Gney (2013) HDTVRip | L торрент скачать бесплатно

    Опубликовал: Админ | Дата: 24-06-2015, 11:23 | Просмотров: 262



    Детально о кино
    Русское название: Кузей Гюней
    Русское название в мировом прокате: Kuzey G?ney
    Создали в: 2013
    Категория жанра: драма
    Главный режиссер: Мехмет Ада Озтекин/Mehmet Ada ?ztekin

    Актеры
    Кыванч Татлытуг, Бугра Гюльсой, Ойкю Караель, Мустафа Авкиран, Семра Динджер, Онур Озтюрк, Зеррин Текиндор, Бадэ Ишчил, Рыза Коджаоглу, Хазар Эргючлю

    Сюжет фильма

    Кузей — бросил школу, отучившись только в начальных классах, в районе известен как шальной, в смысле, вздорный, непутёвый, ничем не занятый и постоянно завидующий своему старшему брату Гюнею.
    Гюней — учиться на экономическом факультете, в это же время работает помощником на поле для гольфа, чтобы накопить денег для учёбы в магистратуре. Его возлюбленная Айше особых целей перед собой не ставит, то есть, не амбициозна.
    Джемре — дочь местного парикмахера Гюльтен, работает официанткой в кафе, своей жизнью она не очень довольна, но она любит Гюнея. Её мать делает всё, на что способна, чтобы дочь могла стать актрисой.
    Официальный сайт
    Снималось в: Турция
    Киностудия: Ay Yap?m, Kanal D
    Время просмотра: ~01: 40: 00 серия
    Перевод текста: Любительский одноголосый закадровый (Матвей Кенс, turok1990)
    Файл
    Кодек для видео: XviD/MP3
    Качество фильма: HDTVRip
    Информация о видео: MPEG4, XviD, 720x400 (16: 9), 25.000 fps, 1 675 Kbps (0.233 bit/pixel)
    Информация о звуке: MP3, 48.0 KHz, 2 ch, 224 Kbps, CBR
    Скриншоты
    Screenshots
    MediaInfo
    General
    Complete name : /Kuzey.Guney.2012.2.sezon.L1.HDTVRip/Kuzey.Guney.2.sezon.01.(41).seriya.2012.HDTVRip.avi
    Format : AVI
    Format/Info : Audio Video Interleave
    File size : 1.56 GiB
    Duration : 1h 57mn
    Overall bit rate : 1 909 Kbps
    Video
    ID : 0
    Format : MPEG-4 Visual
    Format profile : Advanced Simple@L5
    Format settings, BVOP : 2
    Format settings, QPel : No
    Format settings, GMC : No warppoints
    Format settings, Matrix : Default (H.263)
    Codec ID : XVID
    Codec ID/Hint : XviD
    Duration : 1h 57mn
    Bit rate : 1 675 Kbps
    Width : 720 pixels
    Height : 400 pixels
    Display aspect ratio : 16: 9
    Frame rate : 25.000 fps
    Color space : YUV
    Chroma subsampling : 4: 2: 0
    Bit depth : 8 bits
    Scan type : Progressive
    Compression mode : Lossy
    Bits/(Pixel*Frame) : 0.233
    Stream size : 1.37 GiB (88%)
    Writing library : XviD 64
    Audio
    ID : 1
    Format : MPEG Audio
    Format version : Version 1
    Format profile : Layer 3
    Mode : Joint stereo
    Mode extension : MS Stereo
    Codec ID : 55
    Codec ID/Hint : MP3
    Duration : 1h 57mn
    Bit rate mode : Constant
    Bit rate : 224 Kbps
    Channel(s) : 2 channels
    Sampling rate : 48.0 KHz
    Compression mode : Lossy
    Stream size : 188 MiB (12%)
    Alignment : Aligned on interleaves
    Interleave, duration : 40 ms (1.00 video frame)
    Interleave, preload duration : 504 ms
    Writing library : LAME3.98r
    Encoding settings : -m j -V 4 -q 3 -lowpass 19.4 -b 224


    Онлайн видео Кузей Гюней


    Размер скачиваемого торрента: 48.48 GB (52050399702 Bytes)

    Кузей Гюней/Kuzey Gney (2013) HDTVRip | L
    загрузка...
    Рейтинг →
     (голосов: 1, оценка 4/5, голосовать можно 1 раз )

    Другие торренты по теме:

  • Кузей Гюней / Kuzey Gney (2011) HDTVRip | P скачать через торрент бесплатно


    • Комментарии (0):

      Информация

      Информация

        Посетители, находящиеся в группе Гости, не могут оставлять комментарии в данной новости.

        ↓ Меню



        ↓ Опрос

        А Вы добавили сайт в закладки?
        Да
        Не


        Top 10 за месяц (Фильмы)