.
Авторизация | Регистрация




Хлоя / Chloe (2009) DVD9 | D скачать торрент бесплатно

Опубликовал: Админ | Дата: 25-06-2015, 05:09 | Просмотров: 63



Детально о кино
Русское название: Хлоя
Русское название в мировом прокате: Chloe
Создали в: 2009
Категория жанра: триллер, драма, детектив
Главный режиссер: Атом Эгоян

Актеры
Джулианна Мур, Лиам Нисон, Аманда Сайфред, Макс Тириот, Р.Х. Томсон, Нина Добрев, Мишу Веллани, Джули Ханер, Лаура ДеКартере, Натали Лисинска

Сюжет фильма

Кэтрин — врач, Дэвид — профессор, у них прекрасный сын. На первый взгляд, это идеальная семья. Но однажды Дэвид опаздывает на самолет и пропускает семейное торжество, посвященное его дню рождения. С этого момента Кэтрин начинает подозревать мужа в измене. Женщина заключает сделку с Хлоей, которая должна соблазнить Дэвида и предоставить подробный отчет. Но со временем отчеты становятся все более сухими, а встречи двух женщин — все более частыми…


лицам до 17 лет обязательно присутствие взрослого
Снималось в: США, Канада, Франция
Киностудия: Studio Canal, The Montecito Picture Company
Время просмотра: 92 мин./01: 32
Перевод текста: полное дублирование
Оригинальная дорожка: отсутствует
Файл
Кодек для видео: MPEG2
Качество фильма: DVD9 Вольга
Информация о видео: PAL 16: 9 (720x576@1024x576) VBR 4988 Kbps, 25.000 fps
Информация о звуке 1: Dolby AC3, 6 ch, 48.0 KHz, 448 Кbps
Информация о звуке 2: DTS 6 ch, 48.0 KHz, 1536 Кbps
Субтитры: отсутствуют
MediaInfo
Общее
Полное имя : D: Chloe.2009.DVD9VIDEO_TSVTS_03_1.VOB
Формат : MPEG-PS
Размер файла : 1024 Мбайт
Продолжительность : 20 м.
Режим общего битрейта : Переменный
Общий поток : 7086 Кбит/сек
Видео
Идентификатор : 224 (0xE0)
Формат : MPEG Video
Версия формата : Version 2
Профиль формата : Main@Main
Параметр BVOP формата : Да
Параметр матрицы формата : Выборочная
Параметр GOP формата : M=3, N=15
Продолжительность : 20 м.
Вид битрейта : Переменный
Битрейт : 4988 Кбит/сек
Максимальный битрейт : 8000 Кбит/сек
Ширина : 720 пикселей
Высота : 576 пикселей
Соотношение сторон : 16: 9
Частота кадров : 25, 000 кадров/сек
Стандарт вещания : PAL
Цветовое пространство : YUV
Субдискретизация насыщенности : 4: 2: 0
Битовая глубина : 8 бит
Тип развёртки : Прогрессивная
Метод сжатия : С потерями
Бит/(Пиксели*Кадры) : 0.481
Временной код первого кадра : 10: 00: 00: 00
Оригинал временного кода : Group of pictures t_head
GOP, открыто/закрыто : Открыто
GOP, открыто/закрыто на первом кадре : Закрыто
Размер потока : 721 Мбайт (70%)
Аудио #1
Идентификатор : 189 (0xBD)-128 (0x80)
Формат : AC-3
Формат/Информация : Audio Coding 3
Расширение режима : CM (complete main)
Параметр Endianness формата : Big
Режим смешивания : DVD-Video
Продолжительность : 20 м.
Вид битрейта : Постоянный
Битрейт : 448 Кбит/сек
Каналы : 6 каналов
Расположение каналов : Front: L C R, Side: L R, LFE
Частота : 48, 0 КГц
Метод сжатия : С потерями
Размер потока : 64, 7 Мбайт (6%)
Аудио #2
Идентификатор : 189 (0xBD)-137 (0x89)
Формат : DTS
Формат/Информация : Digital Theater Systems
Режим : 16
Параметр Endianness формата : Big
Режим смешивания : DVD-Video
Продолжительность : 20 м.
Вид битрейта : Постоянный
Битрейт : 1510 Кбит/сек
Каналы : 6 каналов
Расположение каналов : Front: L C R, Side: L R, LFE
Частота : 48, 0 КГц
Битовая глубина : 24 бит
Метод сжатия : С потерями
Размер потока : 218 Мбайт (21%)
Меню
Скриншоты


Залил: carisha
Размер скачиваемого торрента: 7.27 GB (7809310720 Bytes)

Хлоя/Chloe (2009) DVD9 | D
загрузка...
Рейтинг →
 (голосов: 1, оценка 3/5, голосовать можно 1 раз )

Другие торренты по теме:

  • Любовь после полудня / Хлоя после полудня / Lamour lapres-midi (1972) DVDRip торрент скачать бесплатно
  • Волшебство Хлои / Chloes Closet (2009) WEBRip | D скачать через торрент бесплатно
  • Хлоя и Тео / Chloe and Theo (2015) WEB-DLRip 720p от KinoRay Lord32x Studio | L2 скачать торрент бесплатно
  • Хлоя и Тео / Chloe and Theo (2015) BDRip 720p | P скачать торрент бесплатно


    • Комментарии (0):

      Информация

      Информация

        Посетители, находящиеся в группе Гости, не могут оставлять комментарии в данной новости.

        ↓ Меню



        ↓ Опрос

        А Вы добавили сайт в закладки?
        Да
        Не


        Top 10 за неделю (Фильмы)