.
Авторизация | Регистрация
» » Паранормальное явление: Призраки / Paranormal Activity: The Ghost Dimension (2015) WEBRip 1080p | Трейлер скачать торрент бесплатно




    Паранормальное явление: Призраки / Paranormal Activity: The Ghost Dimension (2015) WEBRip 1080p | Трейлер скачать торрент бесплатно

    Опубликовал: Админ | Дата: 25-06-2015, 05:13 | Просмотров: 191



    Создали в: 2015
    Создали в: США
    Категория жанра: ужасы
    Перевод текста: Дублированный
    Главный режиссер: Грегори Плоткин
    Продюсеры: Джейсон Блум, Орен Пели, Стивен Р. Молен
    Актеры: Nathan Brewer, Jay Hieron
    Описание фильма:
    Американский фантастический фильм ужасов Паранормальное явление: Призраки (Paranormal Activity: The Ghost Dimension) продолжает популярный проект Паранормальное явление, в рамках которого вышло уже 5 историй. На сей раз героями истории о ночных кошмарах в собственном доме стали члены семьи, недавно потерявшей младшую дочь.
    Дата мировой премьеры: 22 октября 2015
    Дата российской премьеры: 22 октября 2015

    Время просмотра: 00: 02: 24
    Качество фильма видео: WEBRip 1080p
    Информация о видеокодек: MPEG-4 AVC/H.264
    Битрейт видео: 6696 Кбит/сек
    Размер скачиваемого торрента кадра: 1920x1080
    Информация о звукекодек: AAC
    Битрейт аудио: 128 Кбит/сек
    MediaInfo:

    Общее
    Полное имя : Paranormal-Activity_-The-Ghost-Dimension.mp4
    Формат : MPEG-4
    Профиль формата : Base Media
    Идентификатор кодека : isom
    Размер файла : 118 Мбайт
    Продолжительность : 2 м. 24 с.
    Режим общего битрейта : Переменный
    Общий поток : 6828 Кбит/сек
    Дата кодирования : UTC 2015-06-24 09: 59: 28
    Дата пометки : UTC 2015-06-24 09: 59: 28
    Программа кодирования : Lavf51.12.1
    Видео
    Идентификатор : 1
    Формат : AVC
    Формат/Информация : Advanced Video Codec
    Профиль формата : High@L5
    Параметр CABAC формата : Нет
    Параметр ReFrames формата : 5 кадров
    Параметр GOP формата : M=1, N=12
    Идентификатор кодека : avc1
    Идентификатор кодека/Информация : Advanced Video Coding
    Продолжительность : 2 м. 24 с.
    Битрейт : 6696 Кбит/сек
    Ширина : 1920 пикселей
    Высота : 1080 пикселей
    Соотношение сторон : 16: 9
    Режим частоты кадров : Постоянный
    Частота кадров : 25, 000 кадров/сек
    Цветовое пространство : YUV
    Субдискретизация насыщенности : 4: 2: 0
    Битовая глубина : 8 бит
    Тип развёртки : Прогрессивная
    Бит/(Пиксели*Кадры) : 0.129
    Размер потока : 116 Мбайт (98%)
    Язык : English
    Дата кодирования : UTC 2015-06-24 09: 59: 28
    Дата пометки : UTC 2015-06-24 09: 59: 28
    Аудио
    Идентификатор : 2
    Формат : AAC
    Формат/Информация : Advanced Audio Codec
    Профиль формата : LC
    Идентификатор кодека : 40
    Продолжительность : 2 м. 24 с.
    Вид битрейта : Переменный
    Битрейт : 128 Кбит/сек
    Каналы : 2 канала
    Расположение каналов : Front: L R
    Частота : 44, 1 КГц
    Метод сжатия : С потерями
    Размер потока : 2, 21 Мбайт (2%)
    Язык : English
    Дата кодирования : UTC 2015-06-24 09: 59: 28
    Дата пометки : UTC 2015-06-24 09: 59: 28

    Скриншоты



    Скриншоты



    Залил: Jokerzv

    Онлайн видео Паранормальное явление: Призраки


    Размер скачиваемого торрента: 117.96 MB (123691296 Bytes)

    Паранормальное явление: Призраки/Paranormal Activity: The Ghost Dimension (2015) WEBRip 1080p | Трейлер
    загрузка...
    Рейтинг →
     (голосов: 1, оценка 3/5, голосовать можно 1 раз )

    Другие торренты по теме:

  • Паранормальное явление 4 / Paranormal Activity 4 (2012) HDRip | UNRATED | Звук с CAMRip торрент скачать бесплатно
  • 30 ночей паранормального явления с одержимой девушкой с татуировкой дракона / 30 Nights of Paranormal Activity with the Devil Inside the Girl with the Dragon Tattoo (2012) WEB-DLRip | L2 торрент скачать бесплатно
  • Дом с паранормальными явлениями / A Haunted House (2013) CAMRip торрент скачать бесплатно
  • 30 ночей паранормального явления с одержимой девушкой с татуировкой дракона / 30 Nights of Paranormal Activity (2012) BDRip 1080p скачать через торрент бесплатно
  • Паранормальное явление 4 / Paranormal Activity 4 (2012) HDRip от Deadmauvlad | D | Unrated Directors Cut скачать через торрент бесплатно
  • Дом с паранормальными явлениями / A Haunted House (2013) BDRip 720p от leonardo 59 Scarabey | Лицензия торрент скачать бесплатно
  • Паранормальное явление: Метка Дьявола (2014) скачать через торрент бесплатно
  • Паранормальное явление 4 / Paranormal Activity 4 (2012) HDRip от Deadmauvlad | D | Unrated Directors Cut | USA Transfer торрент скачать бесплатно


    • Комментарии (0):

      Информация

      Информация

        Посетители, находящиеся в группе Гости, не могут оставлять комментарии в данной новости.

        ↓ Меню



        ↓ Опрос

        А Вы добавили сайт в закладки?
        Да
        Не


        Top 10 за неделю (Фильмы)