.
Авторизация | Регистрация
Хочешь лучшие торренты? Добавь свой email!
Добавить
» » Смертный приговор / Death Sentence (2007) BDRip 720p от HQ-ViDEO | P торрент скачать бесплатно




    Смертный приговор / Death Sentence (2007) BDRip 720p от HQ-ViDEO | P торрент скачать бесплатно

    Опубликовал: Админ | Дата: 26-06-2015, 05:08 | Просмотров: 115


    Смертный приговор/Death Sentence (2007) BDRip 720p
    Релиз от HQ-ViDEO

    Детально о кино
    Русское название: Смертный приговор
    Русское название в мировом прокате: Death Sentence
    Создали в: 2007
    Категория жанра: боевик, триллер, драма, криминал
    Главный режиссер: Джеймс Ван /James Wan/

    Актеры
    Кевин Бейкон /Kevin Bacon/, Гаррет Хедлунд /Garrett Hedlund/, Келли Престон /Kelly Preston/, Джордан Гаррет /Jordan Garrett/, Стюарт Лэфферти /Stuart Lafferty/, Аиша Тайлер /Aisha Tyler/, Джон Гудмен /John Goodman/, Мэтью О’Лири /Matt O;Leary/, Эди Гатеги /Edi Gathegi/, Гектор Руис /Hector Atreyu Ruiz/...

    Сюжет фильма

    Ник — менеджер крупной компании, обходительный и вежливый человек с репутацией отличного семьянина. Его жизнь была прекрасна, до тех пор, пока однажды он не стал свидетелем того, что полностью и бесповоротно сделало его иным. Поселившаяся в нём с той ужасной ночи ярость приводит его к твердой уверенности, что для защиты своей семьи он не остановится ни перед чем...

    Снималось в: США
    Время просмотра: 01: 45: 30
    Перевод текста: Русский профессиональный, многоголосый + Оригинальная, английская дорожка (отдельно)
    Файл
    Кодек для видео: MKV, H.264
    Качество фильма: BDRip 720p (Source: Blu-ray Disc)
    Информация о видео: 5358 kbps; 0.328 bit/pixel; 1280 x 532; 2.40: 1; 23.976 fps
    Информация о звуке #1: AC3 Dolby Digital; 448.00 kbps, 6 Ch - MVO
    Информация о звуке #2: AC3 Dolby Digital; 448.00 kbps, 6 Ch - ENG (отдельно/скачать с Яндекс Диск)
    Субтитры: Русские, Английские.
    Размер скачиваемого торрента: 4.37 GB
    SAMPLE/скачать с Яндекс Диск
    MediaInfo

    General
    Complete name : Smertnyi.Prigovor.2007.RUS.BDRip.720p.h264.AC3.-HQ-ViDEO.mkv
    Format : Matroska
    File size : 4.37 GiB
    Duration : 1h 45mn
    Overall bit rate : 5 924 Kbps
    Movie name : Death Sentence (2007)
    Encoded date : UTC 2010-12-19 12: 52: 08
    Writing application : mkvmerge v3.3.0 (;Language;) built on Mar 24 2010 14: 59: 24
    Writing library : libebml v0.8.0 + libmatroska v0.9.0
    Video
    ID : 1
    Format : AVC
    Format/Info : Advanced Video Codec
    Format profile : High@L4.1
    Format settings, CABAC : Yes
    Format settings, ReFrames : 6 frames
    Muxing mode : Container profile=Unknown@4.1
    Codec ID : V_MPEG4/ISO/AVC
    Duration : 1h 45mn
    Bit rate : 5 358 Kbps
    Width : 1 280 pixels
    Height : 532 pixels
    Display aspect ratio : 2.40: 1
    Frame rate : 23.976 fps
    Resolution : 8 bits
    Colorimetry : 4: 2: 0
    Scan type : Progressive
    Bits/(Pixel*Frame) : 0.328
    Stream size : 3.94 GiB (90%)
    Title : Encoded by GYN
    Audio
    ID : 2
    Format : AC-3
    Format/Info : Audio Coding 3
    Codec ID : A_AC3
    Duration : 1h 45mn
    Bit rate mode : Constant
    Bit rate : 448 Kbps
    Channel(s) : 6 channels
    Channel positions : Front: L C R, Surround: L R, LFE
    Sampling rate : 48.0 KHz
    Stream size : 338 MiB (8%)
    Title : MVO
    Language : Russian
    Text #1
    ID : 3
    Format : UTF-8
    Codec ID : S_TEXT/UTF8
    Codec ID/Info : UTF-8 Plain Text
    Language : Russian
    Text #2
    ID : 4
    Format : UTF-8
    Codec ID : S_TEXT/UTF8
    Codec ID/Info : UTF-8 Plain Text
    Language : English





    Релиз подготовил: HQ-ViDEO
    Автор рипа: GYN

    Онлайн видео Смертный приговор


    Размер скачиваемого торрента: 4.37 GB (4687665806 Bytes)

    Смертный приговор/Death Sentence (2007) BDRip 720p от HQ-ViDEO | P
    загрузка...
    Рейтинг →
     (голосов: 1, оценка 5/5, голосовать можно 1 раз )

    Другие торренты по теме:

  • Смертный приговор / Death Sentence (2007) BDRip 1080p
  • Смертный приговор / Death Sentence (2007) BDRip-AVC от HELLYWOOD | P
  • OST - Смертный Приговор / Death Sentence (2007) MP3
  • Смертный приговор / Death Sentence (2007) BDRip от Rulya74 | P2. A скачать через торрент бесплатно
  • Смертный приговор / Death Sentence (2007) DVDRip от Sanjar NeoJet | КПК скачать через торрент бесплатно
  • Смертный приговор / Death Sentence (2007) BDRip-AVC от HQCLUB


    • Комментарии (0):

      Информация

      Информация

        Посетители, находящиеся в группе Гости, не могут оставлять комментарии в данной новости.

        ↓ Меню



        ↓ Опрос

        А Вы добавили сайт в закладки?
        Да
        Не


        Top 10 за месяц (Фильмы)