.
Авторизация | Регистрация
Хочешь лучшие торренты? Добавь свой email!
Добавить
» » Темное дитя / Orphan Black (2015) WEBDL 720p | To4ka торрент скачать бесплатно




    Темное дитя / Orphan Black (2015) WEBDL 720p | To4ka торрент скачать бесплатно

    Опубликовал: Админ | Дата: 26-06-2015, 14:07 | Просмотров: 185



    Детально о кино
    Русское название: Темное дитя
    Русское название в мировом прокате: Orphan Black
    Создали в: 2015
    Категория жанра: фантастика, боевик, драма
    Главный режиссер: Джон Фоусет, Т.Дж. Скотт, Дэвид Фрэйзи

    Актеры
    Татьяна Маслани, Джордан Джаварис, Мария Дойл Кеннеди, Дилан Брюс, Кевин Ханчард, Скайлер Уэкслер, Эвелин Брошу, Кристиан Бруун, Инга Кадранел, Майкл Мэндо

    Сюжет фильма

    Сара — сирота, которой выпало перенести немало лишений в жизни. Лишенная родительской любви и заботы, Сара чувствует себя отрешенной от этого мира, в котором, как ей кажется, она никому не нужна. Нет ни единого человека, который бы заботился о ней. Но вот и без того нерадостная жизнь девушки однажды омрачается одним трагическим происшествием. Сара невольно становится свидетельницей того, как молодая женщина накладывает на себя руки. Самое страшное — покойная пугающе похожа на саму Сару. Сара совершает странный поступок — она заменяет собой погибшую, выдав себя за неё. Но это становится началом ряда несчастливых событий, которые лишь добавляют Саре проблем. Но на этом не заканчивается. Сара понимает, что она и погибшая не только невероятно похожи друг на друга…
    Официальный сайт
    Снималось в: Канада, США
    Киностудия: Temple Street Productions, BBC America, Bell Media
    Время просмотра: ~00: 45: 00 серия
    Перевод текста: Любительский (многоголосый закадровый) -To4ka
    Файл
    Кодек для видео: h.264/AC3
    Качество фильма: WEBDL 720p
    Информация о видео: AVC, 1280x720 (16: 9), 23.976 fps, 3 872 Kbps (0.175 bit/pixel)
    Информация о звуке:
    Аудио #1: AC-3, 48.0 KHz, 6 ch, 384 Kbps, CBR (Russian)
    Аудио #2: AC-3, 48.0 KHz, 6 ch, 384 Kbps, CBR (English)
    Семпл
    Скриншоты
    Screenshots
    MediaInfo
    General
    Unique ID : 223620204085598559263710620216056986296 (0xA83BAF49EE467A688CBDB0168165BAB8)
    Complete name : Orphan.Black.s03e01.WEB-DL.720p.Rus.Eng.To4ka.TV.mkv
    Format : Matroska
    Format version : Version 4/Version 2
    File size : 1.44 GiB
    Duration : 43mn 38s
    Overall bit rate : 4 734 Kbps
    Encoded date : UTC 2015-04-22 18: 26: 12
    Writing application : mkvmerge v7.8.0 (;River Man;) 64bit built on Mar 27 2015 16: 31: 37
    Writing library : libebml v1.3.1 + libmatroska v1.4.2
    DURATION : 00: 43: 38.048000000
    NUMBER_OF_FRAMES : 81814
    NUMBER_OF_BYTES : 125666304
    _STATISTICS_WRITING_APP : mkvmerge v7.8.0 (;River Man;) 64bit built on Mar 27 2015 16: 31: 37
    _STATISTICS_WRITING_DATE_UTC : 2015-04-22 18: 26: 12
    _STATISTICS_TAGS : BPS DURATION NUMBER_OF_FRAMES NUMBER_OF_BYTES
    Video
    ID : 1
    Format : AVC
    Format/Info : Advanced Video Codec
    Format profile : High@L3.1
    Format settings, CABAC : No
    Format settings, ReFrames : 2 frames
    Codec ID : V_MPEG4/ISO/AVC
    Duration : 43mn 38s
    Bit rate : 3 872 Kbps
    Width : 1 280 pixels
    Height : 720 pixels
    Display aspect ratio : 16: 9
    Frame rate mode : Constant
    Frame rate : 23.976 fps
    Color space : YUV
    Chroma subsampling : 4: 2: 0
    Bit depth : 8 bits
    Scan type : Progressive
    Bits/(Pixel*Frame) : 0.175
    Stream size : 1.18 GiB (82%)
    Language : English
    Default : Yes
    Forced : No
    Color primaries : BT.709
    Transfer characteristics : BT.709
    Matrix coefficients : BT.709
    Audio #1
    ID : 2
    Format : AC-3
    Format/Info : Audio Coding 3
    Mode extension : CM (complete main)
    Format settings, Endianness : Big
    Codec ID : A_AC3
    Duration : 43mn 38s
    Bit rate mode : Constant
    Bit rate : 384 Kbps
    Channel(s) : 6 channels
    Channel positions : Front: L C R, Side: L R, LFE
    Sampling rate : 48.0 KHz
    Bit depth : 16 bits
    Compression mode : Lossy
    Stream size : 120 MiB (8%)
    Title : To4ka.TV
    Language : Russian
    Default : Yes
    Forced : No
    Audio #2
    ID : 3
    Format : AC-3
    Format/Info : Audio Coding 3
    Mode extension : CM (complete main)
    Format settings, Endianness : Big
    Codec ID : A_AC3
    Duration : 43mn 38s
    Bit rate mode : Constant
    Bit rate : 384 Kbps
    Channel(s) : 6 channels
    Channel positions : Front: L C R, Side: L R, LFE
    Sampling rate : 48.0 KHz
    Bit depth : 16 bits
    Compression mode : Lossy
    Stream size : 120 MiB (8%)
    Language : English
    Default : No
    Forced : No


    Онлайн видео Темное дитя


    Размер скачиваемого торрента: 14.60 GB (15679689862 Bytes)

    Темное дитя/Orphan Black (2015) WEBDL 720p | To4ka
    загрузка...
    Рейтинг →
     (голосов: 1, оценка 5/5, голосовать можно 1 раз )

    Другие торренты по теме:

  • Темное дитя / Orphan Black (2013) BDRip 720p от MediaClub | BaibaKo, To4ka скачать через торрент бесплатно
  • Темное дитя / Orphan Black (2015) HDTVRip | To4ka
  • Темное дитя / Orphan Black (2015) WEB-DLRip | To4ka
  • Темное дитя / Orphan Black (2016) HDTVRip | Sunshine Studio
  • Темное дитя / Orphan Black 2016 WEB-DLRip | IdeaFilm
  • Темное дитя / Orphan Black 2016 WEB-DLRip | IdeaFilm
  • Темное дитя / Orphan Black (2016) WEB-DLRip | BaibaKo
  • Темное дитя / Orphan Black (2016) WEB-DL 720p | IdeaFilm


    • Комментарии (0):

      Информация

      Информация

        Посетители, находящиеся в группе Гости, не могут оставлять комментарии в данной новости.

        ↓ Меню



        ↓ Опрос

        А Вы добавили сайт в закладки?
        Да
        Не


        Top 10 за месяц (Фильмы)