.
Авторизация | Регистрация
» » Лагардер: Мститель в маске / Lagardere (2003) DVDRip скачать торрент бесплатно




    Лагардер: Мститель в маске / Lagardere (2003) DVDRip скачать торрент бесплатно

    Опубликовал: Админ | Дата: 27-06-2015, 05:07 | Просмотров: 186



    Снималось в: Франция, Португалия
    Создали в: Canal+, France 2, Telfrance
    Категория жанра: Приключения, исторический, экранизация
    Создали в: 2003
    Время просмотра: 2 х ~ 01: 40: 00
    Перевод текста: Профессиональный многоголосый
    Оригинальная аудиодорожка: Французская
    Главный режиссер: Анри Эльман

    Актеры
    Флоранс Пернель, Бруно Волкович, Фредерик ван ден Дрише, Кристиан Эк, Клио Бэран, Ивон Бэк, Присцилла Бесконд, Тикки Ольгадо, Жак Франц, Изабель Кобер, Жюльен Гиомар, Пьер Жерар, Мишель Модо
    Описание: Франция начала XVIII века. В результате интриг и коварства лучший клинок королевства герцог де Невер погибает от рук наёмных убийц. Перед смертью он вверяет жизнь своей новорождённой дочери Авроры отважному человеку – Анри Лагардеру. Тот клянётся отомстить убийцам и достойно воспитать девочку. Впереди его ждут захватывающие приключения, поединки на шпагах и большая любовь.

    Исходник: DVD9 R2
    Тип релиза: DVDRip
    Контейнер: AVI
    Информация о видео: 720x400 (1.80: 1), 25 fps, XviD MPEG-4 ~1721 kbps avg, 0.24 bit/pixel
    Информация о звуке 1: 48 kHz, AC3 Dolby Digital, 2/0 (L, R) ch, ~192 kbps (русский)
    Информация о звуке 2: 48 kHz, AC3 Dolby Digital, 2/0 (L, R) ch, ~192 kbps (французский)
    MediaInfo

    Общее
    Полное имя : D: ААА2Лагардер1 серия.avi
    Формат : AVI
    Формат/Информация : Audio Video Interleave
    Размер файла : 1, 44 Гбайт
    Продолжительность : 1 ч. 37 м.
    Общий поток : 2120 Кбит/сек
    Программа кодирования : VirtualDubMod 1.5.10.2 (build 2540/release)
    Библиотека кодирования : VirtualDubMod build 2540/release
    Видео
    Идентификатор : 0
    Формат : MPEG-4 Visual
    Профиль формата : Advanced Simple@L5
    Параметр BVOP формата : 2
    Параметр QPel формата : Нет
    Параметр GMC формата : Без точки перехода
    Параметр матрицы формата : Default (MPEG)
    Режим смешивания : Сжатый битовый поток
    Идентификатор кодека : XVID
    Идентификатор кодека/Подсказка : XviD
    Продолжительность : 1 ч. 37 м.
    Битрейт : 1722 Кбит/сек
    Ширина : 720 пикселей
    Высота : 400 пикселей
    Соотношение сторон : 16: 9
    Частота кадров : 25, 000 кадров/сек
    Цветовое пространство : YUV
    Субдискретизация насыщенности : 4: 2: 0
    Битовая глубина : 8 бит
    Тип развёртки : Прогрессивная
    Метод сжатия : С потерями
    Бит/(Пиксели*Кадры) : 0.239
    Размер потока : 1, 17 Гбайт (81%)
    Библиотека кодирования : XviD 1.2.1 (UTC 2008-12-04)
    Аудио #1
    Идентификатор : 1
    Формат : AC-3
    Формат/Информация : Audio Coding 3
    Расширение режима : CM (complete main)
    Параметр Endianness формата : Big
    Идентификатор кодека : 2000
    Продолжительность : 1 ч. 37 м.
    Вид битрейта : Постоянный
    Битрейт : 192 Кбит/сек
    Каналы : 2 канала
    Расположение каналов : Front: L R
    Частота : 48, 0 КГц
    Битовая глубина : 16 бит
    Метод сжатия : С потерями
    Задержка видео : 7 с. 250 мс.
    Размер потока : 134 Мбайт (9%)
    Выравнивание : Разделение по промежуткам
    Продолжительность промежутка : 40 мс. (1, 00 видеокадр)
    Время предзагрузки промежутка : 500 мс.
    Аудио #2
    Идентификатор : 2
    Формат : AC-3
    Формат/Информация : Audio Coding 3
    Расширение режима : CM (complete main)
    Параметр Endianness формата : Big
    Идентификатор кодека : 2000
    Продолжительность : 1 ч. 37 м.
    Вид битрейта : Постоянный
    Битрейт : 192 Кбит/сек
    Каналы : 2 канала
    Расположение каналов : Front: L R
    Частота : 48, 0 КГц
    Битовая глубина : 16 бит
    Метод сжатия : С потерями
    Размер потока : 134 Мбайт (9%)
    Выравнивание : Разделение по промежуткам
    Продолжительность промежутка : 40 мс. (1, 00 видеокадр)
    Время предзагрузки промежутка : 500 мс.

    Скриншоты


    Релиз:
    Залил: YArl

    Онлайн видео Лагардер: Мститель в маске


    Размер скачиваемого торрента: 2.89 GB (3101700096 Bytes)

    Лагардер: Мститель в маске/Lagardere (2003) DVDRip
    загрузка...
    Рейтинг →
     (голосов: 1, оценка 5/5, голосовать можно 1 раз )

    Другие торренты по теме:



      Комментарии (0):

      Информация

      Информация

        Посетители, находящиеся в группе Гости, не могут оставлять комментарии в данной новости.

        ↓ Меню



        ↓ Опрос

        А Вы добавили сайт в закладки?
        Да
        Не


        Top 10 за неделю (Фильмы)