.
Авторизация | Регистрация
» » Седьмой сын / Seventh Son (2014) DVD9 | Лицензия скачать торрент бесплатно




    Седьмой сын / Seventh Son (2014) DVD9 | Лицензия скачать торрент бесплатно

    Опубликовал: Админ | Дата: 28-06-2015, 05:02 | Просмотров: 143



    Детально о кино
    Русское название: Седьмой сын
    Русское название в мировом прокате: Seventh Son
    Создали в: 2014
    Категория жанра: фэнтези, приключения
    Главный режиссер: Сергей Бодров

    Актеры
    Бен Барнс, Джефф Бриджес, Джулианна Мур, Алисия Викандер, Антье Трауэ, Оливия Уильямс, Джон ДеСантис, Кит Харингтон, Джимон Хонсу, Джерард Планкет

    Сюжет фильма

    Рассказ в фильме пойдет про парня, который, так уж вышло, стал седьмым сыном седьмого сына. А только такой человек может стать ведьмаком. Но этого недостаточно, чтобы именовать себя так — необходимо пройти массу тренировок, а также усердно учиться. Ведь главное оружие ведьмака — это его ум. Хоть в народе их не любят, но кто-то же обязан убивать нечисть, хранить землю от сил зла и делать всю грязную работу? Юный Том Уорд попробует стать тем самым учеником ведьмака.

    Снималось в: США, Великобритания, Канада, Китай
    Киностудия: China Film Co., Legendary Pictures, The Moving Picture Company
    Время просмотра: 98 мин./01: 38
    Перевод текста: полное дублирование
    Файл
    Кодек для видео: MPEG2
    Качество фильма: DVD9 Двадцатый Век Фокс СНГ
    Информация о видео: PAL 16: 9 (720x576@1024x576) VBR 6061 Kbps, 25.000 fps
    Информация о звуке 1: Dolby AC3, 6 ch, 48.0 KHz, 384 Кbps (русский)
    Информация о звуке 2: Dolby AC3, 6 ch, 48.0 KHz, 384 Кbps (английский)
    Информация о звуке 3: Dolby AC3, 6 ch, 48.0 KHz, 384 Кbps (польский)
    Информация о звуке 4: Dolby AC3, 6 ch, 48.0 KHz, 384 Кbps (венгерский)
    Информация о звуке 5: Dolby AC3, 6 ch, 48.0 KHz, 384 Kbps (чешский)
    Субтитры: русские, английские, венгерские, чешские, польские, болгарские, хорватские, греческие, иврит, румынские, эстонские, латышские, литовские, украинские, словенские
    MediaInfo
    Общее
    Полное имя : E: Седьмой сын 2014VIDEO_TSVTS_05_2.VOB
    Формат : MPEG-PS
    Размер файла : 1024 Мбайт
    Продолжительность : 17 м.
    Режим общего битрейта : Переменный
    Общий поток : 8143 Кбит/сек
    Видео
    Идентификатор : 224 (0xE0)
    Формат : MPEG Video
    Версия формата : Version 2
    Профиль формата : Main@Main
    Параметр BVOP формата : Да
    Параметр матрицы формата : Выборочная
    Параметр GOP формата : Variable
    Структура изображения : Frame
    Продолжительность : 17 м.
    Вид битрейта : Переменный
    Битрейт : 6061 Кбит/сек
    Максимальный битрейт : 9800 Кбит/сек
    Ширина : 720 пикселей
    Высота : 576 пикселей
    Соотношение сторон : 16: 9
    Частота кадров : 25, 000 кадров/сек
    Стандарт вещания : PAL
    Цветовое пространство : YUV
    Субдискретизация насыщенности : 4: 2: 0
    Битовая глубина : 8 бит
    Тип развёртки : Чересстрочная
    Порядок развёртки : Верхнее поле первое
    Метод сжатия : С потерями
    Бит/(Пиксели*Кадры) : 0.585
    Временной код первого кадра : 01: 17: 47: 12
    Оригинал временного кода : Group of pictures t_head
    GOP, открыто/закрыто : Открыто
    Размер потока : 762 Мбайт (74%)
    Аудио #1
    Идентификатор : 189 (0xBD)-128 (0x80)
    Формат : AC-3
    Формат/Информация : Audio Coding 3
    Расширение режима : CM (complete main)
    Параметр Endianness формата : Big
    Режим смешивания : DVD-Video
    Продолжительность : 17 м.
    Вид битрейта : Постоянный
    Битрейт : 384 Кбит/сек
    Каналы : 6 каналов
    Расположение каналов : Front: L C R, Side: L R, LFE
    Частота : 48, 0 КГц
    Метод сжатия : С потерями
    Задержка видео : -656 мс.
    Размер потока : 48, 3 Мбайт (5%)
    Аудио #2
    Идентификатор : 189 (0xBD)-129 (0x81)
    Формат : AC-3
    Формат/Информация : Audio Coding 3
    Расширение режима : CM (complete main)
    Параметр Endianness формата : Big
    Режим смешивания : DVD-Video
    Продолжительность : 17 м.
    Вид битрейта : Постоянный
    Битрейт : 384 Кбит/сек
    Каналы : 6 каналов
    Расположение каналов : Front: L C R, Side: L R, LFE
    Частота : 48, 0 КГц
    Метод сжатия : С потерями
    Задержка видео : -656 мс.
    Размер потока : 48, 3 Мбайт (5%)
    Аудио #3
    Идентификатор : 189 (0xBD)-130 (0x82)
    Формат : AC-3
    Формат/Информация : Audio Coding 3
    Расширение режима : CM (complete main)
    Параметр Endianness формата : Big
    Режим смешивания : DVD-Video
    Продолжительность : 17 м.
    Вид битрейта : Постоянный
    Битрейт : 384 Кбит/сек
    Каналы : 6 каналов
    Расположение каналов : Front: L C R, Side: L R, LFE
    Частота : 48, 0 КГц
    Метод сжатия : С потерями
    Задержка видео : -656 мс.
    Размер потока : 48, 3 Мбайт (5%)
    Аудио #4
    Идентификатор : 189 (0xBD)-131 (0x83)
    Формат : AC-3
    Формат/Информация : Audio Coding 3
    Расширение режима : CM (complete main)
    Параметр Endianness формата : Big
    Режим смешивания : DVD-Video
    Продолжительность : 17 м.
    Вид битрейта : Постоянный
    Битрейт : 384 Кбит/сек
    Каналы : 6 каналов
    Расположение каналов : Front: L C R, Side: L R, LFE
    Частота : 48, 0 КГц
    Метод сжатия : С потерями
    Задержка видео : -656 мс.
    Размер потока : 48, 3 Мбайт (5%)
    Аудио #5
    Идентификатор : 189 (0xBD)-132 (0x84)
    Формат : AC-3
    Формат/Информация : Audio Coding 3
    Расширение режима : CM (complete main)
    Параметр Endianness формата : Big
    Режим смешивания : DVD-Video
    Продолжительность : 17 м.
    Вид битрейта : Постоянный
    Битрейт : 384 Кбит/сек
    Каналы : 6 каналов
    Расположение каналов : Front: L C R, Side: L R, LFE
    Частота : 48, 0 КГц
    Метод сжатия : С потерями
    Задержка видео : -656 мс.
    Размер потока : 48, 3 Мбайт (5%)
    Меню
    Скриншоты


    Залил: carisha

    Онлайн видео Седьмой сын


    Размер скачиваемого торрента: 5.86 GB (6294046720 Bytes)

    Седьмой сын/Seventh Son (2014) DVD9 | Лицензия
    загрузка...
    Рейтинг →
     (голосов: 1, оценка 5/5, голосовать можно 1 раз )

    Другие торренты по теме:

  • Седьмой сын / Seventh Son (2013) HD 1080p | L1 | Трейлер торрент скачать бесплатно
  • Седьмой сын (2015) HDRip скачать торрент бесплатно
  • Седьмой сын / Seventh Son (2015) HD 720p | трейлер скачать через торрент бесплатно
  • Седьмой сын / Seventh Son (2014) WEBRp | Звук с CAMRip скачать торрент бесплатно
  • Седьмой сын / Seventh Son (2014) WEBRp 1080p | Звук с CAMRip скачать торрент бесплатно
  • Седьмой сын / Seventh Son (2014) WEBRp 720p | Чистый звук скачать торрент бесплатно
  • Седьмой сын / Seventh Son (2014) WEB-DLRip | iTunes скачать торрент бесплатно
  • Седьмой сын / Seventh Son (2014) WEB-DLRip от Scarabey | P | iTunes скачать торрент бесплатно


    • Комментарии (0):

      Информация

      Информация

        Посетители, находящиеся в группе Гости, не могут оставлять комментарии в данной новости.

        ↓ Меню



        ↓ Опрос

        А Вы добавили сайт в закладки?
        Да
        Не


        Top 10 за неделю (Фильмы)