.
Авторизация | Регистрация
» » Компьютер в кроссовках / The Computer Wore Tennis Shoes (1969) DVDRip | L1 скачать торрент бесплатно




    Компьютер в кроссовках / The Computer Wore Tennis Shoes (1969) DVDRip | L1 скачать торрент бесплатно

    Опубликовал: Админ | Дата: 28-06-2015, 05:03 | Просмотров: 90




    Создали в: США
    Категория жанра: Семейный, Комедия
    Время просмотра: 01: 30: 24
    Перевод текста: Любительский (одноголосый закадровый) А.Черницкий
    Субтитры: отсутствуют
    Главный режиссер: Роберт Батлер
    Актеры: Курт Рассел, Сесар Ромеро, Джо Флинн, Уильям Шэллерт, Алан Хьюит, Ричард Бакалян, Дэбби Пейн, Фрэнк Уэбб, Майкл МакГриви, Джон Провост

    Описание фильма

    Студенты смогли убедить крупного бизнесмена А. Дж. Арно, купить компьютер для колледжа. Когда студент двоечник, Декстер Райли, пытается покопаться в компьютере, он получает электрошок, и его мозг превращается в компьютер. Теперь он помнит всё, что он читает. К сожалению, он также помнит информацию, которая находится в памяти компьютера, а именно, как Арно проворачивает незаконные сделки.

    Качество фильма видео: DVDRip
    Информация о видео: MPEG4, XviD, 624x480 (1.300), 23.976 fps, 2 099 Kbps (0.292 bit/pixel)
    Информация о звуке: AC-3, 48.0 KHz, 2 ch, 192 Kbps, CBR
    Релиз подготовил: FAGOT100
    Mediainfo:
    code
    Формат : AVI
    Формат/Информация : Audio Video Interleave
    Размер файла : 1, 45 Гбайт
    Продолжительность : 1 ч. 30 м.
    Общий поток : 2300 Кбит/сек
    Программа кодирования : VirtualDubMod 1.5.10.3 | www.virtualdub-fr.org || (build 2550/release)
    Библиотека кодирования : VirtualDubMod build 2550/release
    Видео
    Идентификатор : 0
    Формат : MPEG-4 Visual
    Профиль формата : Advanced Simple@L5
    Параметр BVOP формата : 2
    Параметр QPel формата : Нет
    Параметр GMC формата : Без точки перехода
    Параметр матрицы формата : Выборочная
    Идентификатор кодека : XVID
    Идентификатор кодека/Подсказка : XviD
    Продолжительность : 1 ч. 30 м.
    Битрейт : 2099 Кбит/сек
    Ширина : 624 пикселя
    Высота : 480 пикселей
    Соотношение сторон : 4: 3
    Частота кадров : 23, 976 кадра/сек
    Цветовое пространство : YUV
    Субдискретизация насыщенности : 4: 2: 0
    Битовая глубина : 8 бит
    Тип развёртки : Прогрессивная
    Метод сжатия : С потерями
    Бит/(Пиксели*Кадры) : 0.292
    Размер потока : 1, 33 Гбайт (91%)
    Библиотека кодирования : XviD 73
    Аудио
    Идентификатор : 1
    Формат : AC-3
    Формат/Информация : Audio Coding 3
    Расширение режима : CM (complete main)
    Параметр Endianness формата : Big
    Идентификатор кодека : 2000
    Продолжительность : 1 ч. 30 м.
    Вид битрейта : Постоянный
    Битрейт : 192 Кбит/сек
    Каналы : 2 канала
    Расположение каналов : Front: L R
    Частота : 48, 0 КГц
    Битовая глубина : 16 бит
    Метод сжатия : С потерями
    Размер потока : 124 Мбайт (8%)
    Выравнивание : Разделение по промежуткам
    Продолжительность промежутка : 42 мс. (1, 00 видеокадр)
    Время предзагрузки промежутка : 500 мс.
    Скриншоты


    Онлайн видео Компьютер в кроссовках


    Размер скачиваемого торрента: 1.45 GB (1559707648 Bytes)

    Компьютер в кроссовках/The Computer Wore Tennis Shoes (1969) DVDRip | L1
    загрузка...
    Рейтинг →
     (голосов: 1, оценка 4/5, голосовать можно 1 раз )

    Другие торренты по теме:

  • Мой друг компьютер №26 (декабрь) (2012) PDF торрент скачать бесплатно
  • Мой друг компьютер №25 (декабрь) (2012) PDF торрент скачать бесплатно
  • Компьютер для начинающих №12 (Декабрь) (2012) PDF торрент скачать бесплатно
  • Мой друг компьютер №01 (Январь) (2013) PDF торрент скачать бесплатно
  • Мой друг компьютер №02 (Январь) (2013) PDF торрент скачать бесплатно
  • Мой друг компьютер №03 (Февраль) (2013) PDF торрент скачать бесплатно
  • Компьютер Пресс №01 (январь) (2013) PDF торрент скачать бесплатно
  • Домашний компьютер. 900 игр (2009) PC торрент скачать бесплатно


    • Комментарии (0):

      Информация

      Информация

        Посетители, находящиеся в группе Гости, не могут оставлять комментарии в данной новости.

        ↓ Меню



        ↓ Опрос

        А Вы добавили сайт в закладки?
        Да
        Не


        Top 10 за неделю (Фильмы)