.
Авторизация | Регистрация




Кэнди / Candy (2006) BDRip 720p | P скачать торрент бесплатно

Опубликовал: Админ | Дата: 28-06-2015, 05:03 | Просмотров: 85



Детально о кино
Русское название: Кэнди
Русское название в мировом прокате: Candy
Создали в: 2006
Категория жанра: Мелодрама, драма
Главный режиссер: Нил Армфилд

Актеры
Эбби Корниш, Хит Леджер, Джеффри Раш, Том Бадж, Роберто Меца-Монт, Тони Мартин, Нони Хазлхерст, Холли Остин, Крэйг Морахэн, Джон Ли

Сюжет фильма

Кэнди, красивая юная художница, влюбляется в Дэна, поэта от случая к случаю. Их любовь опьяняет: они стремятся к бесконечному наслаждению. Раздвинуть границы возможного им помогает героин. Когда они вместе, они не боятся будущего. Но вскоре у любовников кончаются деньги на наркотики. Кэнди идёт на панель. Дэн ей не мешает, и незаметно для себя они покидают пределы своего Рая.
Зависимость от героина становится всё сильнее, и в это время Кэнди и Дэн решают скрепить себя узами брака. Свадьба пролетает в наркотическом дурмане. Родители Кэнди в ужасе. На их глазах дочь летит в пропасть, навстречу чему-то, чего они страшно боятся, но не могут понять. Проходят дни и ночи. Для Кэнди и Дэна любовь неразрывно связана с наркотиками…

Снималось в: Австралия
Время просмотра: 01: 47: 45
Перевод текста: Профессиональный (многоголосый закадровый) + Оригинал
CHD
Файл
Тип видео: AVC
Качество фильма: BDRip 720p
Информация о видео: x264, 1280x694, ~5333 kbps, 24.000 fps
Информация о звуке #1: Russian : 48 kHz, AC3, 3/2 (L, C, R, l, r) + LFE ch, ~448 kbps
Информация о звуке #2: English : 48 kHz, AC3, 3/2 (L, C, R, l, r) + LFE ch, ~448 kbps
Субтитры: Русские, Английские
Сэмпл
MediaInfo
Общее
Уникальный идентификатор : 198885197220780832269458091285432368528 (0x959FE54B6F2F34C5951EA3066EF9FD90)
Формат : Matroska
Версия формата : Version 2
Размер файла : 4, 68 Гбайт
Продолжительность : 1 ч. 47 м.
Общий поток : 6224 Кбит/сек
Дата кодирования : UTC 2011-01-26 16: 26: 01
Программа кодирования : mkvmerge v4.4.0 (;Die Wiederkehr;) сборка от Oct 31 2010 21: 52: 48
Библиотека кодирования : libebml v1.0.0 + libmatroska v1.0.0
Видео
Идентификатор : 1
Формат : AVC
Формат/Информация : Advanced Video Codec
Профиль формата : High@L4.1
Параметр CABAC формата : Да
Параметр ReFrames формата : 8 кадров
Идентификатор кодека : V_MPEG4/ISO/AVC
Продолжительность : 1 ч. 47 м.
Битрейт : 5333 Кбит/сек
Ширина : 1280 пикселей
Высота : 694 пикселя
Соотношение сторон : 1, 85: 1
Режим частоты кадров : Постоянный
Частота кадров : 24, 000 кадра/сек
Цветовое пространство : YUV
Субдискретизация насыщенности : 4: 2: 0
Битовая глубина : 8 бит
Тип развёртки : Прогрессивная
Бит/(Пиксели*Кадры) : 0.250
Размер потока : 3, 92 Гбайт (84%)
Заголовок : Candy.2006.BluRay.720p.AC3.x264-CHD
Библиотека кодирования : x264 core 88 r1471 1144615
Настройки программы : cabac=1/ref=8/deblock=1: -3: -3/analyse=0x3: 0x113/me=umh/subme=9/psy=1/psy_rd=1.05: 0.10/mixed_ref=1/me_range=32/chroma_me=1/trellis=2/8x8dct=1/cqm=0/deadzone=21, 11/fast_pskip=0/chroma_qp_offset=-2/threads=12/sliced_threads=0/nr=0/decimate=1/mbaff=0/constrained_intra=0/bframes=3/b_pyramid=2/b_adapt=2/b_bias=0/direct=3/wpredb=1/wpredp=2/keyint=250/keyint_min=25/scenecut=40/intra_refresh=0/rc_lookahead=60/rc=2pass/mbtree=1/bitrate=5333/ratetol=1.0/qcomp=0.60/qpmin=10/qpmax=51/qpstep=4/cplxblur=20.0/qblur=0.5/vbv_maxrate=50000/vbv_bufsize=50000/ip_ratio=1.40/aq=1: 0.60
Язык : English
Default : Да
Forced : Нет
Аудио #1
Идентификатор : 2
Формат : AC-3
Формат/Информация : Audio Coding 3
Расширение режима : CM (complete main)
Параметр Endianness формата : Big
Идентификатор кодека : A_AC3
Продолжительность : 1 ч. 47 м.
Вид битрейта : Постоянный
Битрейт : 448 Кбит/сек
Каналы : 6 каналов
Расположение каналов : Front: L C R, Side: L R, LFE
Частота : 48, 0 КГц
Битовая глубина : 16 бит
Метод сжатия : С потерями
Размер потока : 345 Мбайт (7%)
Заголовок : AC3 5.1 @ 448 kbps |Многоголосный закадровый|
Язык : Russian
Default : Да
Forced : Да
Аудио #2
Идентификатор : 3
Формат : AC-3
Формат/Информация : Audio Coding 3
Расширение режима : CM (complete main)
Параметр Endianness формата : Big
Идентификатор кодека : A_AC3
Продолжительность : 1 ч. 47 м.
Вид битрейта : Постоянный
Битрейт : 448 Кбит/сек
Каналы : 6 каналов
Расположение каналов : Front: L C R, Side: L R, LFE
Частота : 48, 0 КГц
Битовая глубина : 16 бит
Метод сжатия : С потерями
Размер потока : 345 Мбайт (7%)
Заголовок : AC3 5.1 @ 448 kbps |Оригинал|
Язык : English
Default : Нет
Forced : Нет
Текст #1
Идентификатор : 4
Формат : UTF-8
Идентификатор кодека : S_TEXT/UTF8
Идентификатор кодека/Информация : UTF-8 Plain Text
Язык : Russian
Default : Да
Forced : Да
Текст #2
Идентификатор : 5
Формат : UTF-8
Идентификатор кодека : S_TEXT/UTF8
Идентификатор кодека/Информация : UTF-8 Plain Text
Язык : English
Default : Нет
Forced : Нет
Скриншоты

Размер скачиваемого торрента: 4.68 GB (5030343275 Bytes)

Кэнди/Candy (2006) BDRip 720p | P
загрузка...
Рейтинг →
 (голосов: 1, оценка 4/5, голосовать можно 1 раз )

Другие торренты по теме:

  • Сладкоежка / Кэнди / Candy (1968) DVDRip-AVC торрент скачать бесплатно
  • Кэнди / Candy (2006) HDRip от Scarabey | P скачать торрент бесплатно
  • Украсть Кэнди / Stealing Candy (2003) DVDRip | P скачать торрент бесплатно


    • Комментарии (0):

      Информация

      Информация

        Посетители, находящиеся в группе Гости, не могут оставлять комментарии в данной новости.

        ↓ Меню



        ↓ Опрос

        А Вы добавили сайт в закладки?
        Да
        Не


        Top 10 за неделю (Фильмы)