.
Авторизация | Регистрация
» » Единичка (2015) DVDRip-AVC | Лицензия торрент скачать бесплатно




    Единичка (2015) DVDRip-AVC | Лицензия торрент скачать бесплатно

    Опубликовал: Админ | Дата: 28-06-2015, 11:25 | Просмотров: 111



    Детально о кино
    Русское название в мировом прокате: Единичка
    Создали в: 2015
    Категория жанра: Военный, драма
    Снималось в: Россия, Марс Медиа Энтертейнмент
    Главный режиссер: Кирилл Белевич

    Актеры
    Андрей Мерзликин, Илья Коробко, Анна Прус, Арина Борисова, Александр Вершинин, Михаил Евланов, Микаэл Джанибекян, Сергей Габриэлян, Добрыня Белевич-Оболенский, Якуб Здруйковский

    Сюжет фильма
    Август 1944-го. Советские войска продолжают наступление в Восточной Польше. Подразделение старшего лейтенанта Егорова получает задание — удержать мост, через который планируется переправа частей Советской Армии. Прибыв на позицию, бойцы обнаруживают разрушенный монастырь, а в нем — группу глухих сирот с воспитательницей Евой. Утратив веру, она нашла смысл жизни в спасении немощных и беззащитных детей. Лейтенант Егоров оказывается перед сложным выбором — выполняя приказ командования, он будет вынужден поставить под угрозу жизнь маленьких поляков. Артиллеристы изо всех сил стараются не допустить смерти детей.
    Файл
    Качество фильма: DVDRip-AVC
    Информация о видео: MPEG-4 AVC, 1418 Кбит/с, 720x304
    Информация о звуке: AC3, 6 ch, 448 Кбит/с
    Размер скачиваемого торрента: 1.36 ГБ
    Время просмотра: 01: 44: 55
    Язык: Русский
    MI

    x264 info: frame I: 1255 Avg QP: 16.90 size: 36772
    x264 info: frame P: 41925 Avg QP: 20.23 size: 13444
    x264 info: frame B: 114217 Avg QP: 21.71 size: 4424
    Общее
    Уникальный идентификатор : 248886212995690717118440242829247163788 (0xBB3DBDB47E32C3B1A39AEFD3A468AD8C)
    Полное имя : C: VideoEdini4ka.2015.O.DVDRip.x264_by_bog3417.mkv
    Формат : Matroska
    Версия формата : Version 2
    Размер файла : 1, 37 Гбайт
    Продолжительность : 1 ч. 44 м.
    Общий поток : 1867 Кбит/сек
    Название фильма : Edini4ka.2015.O.DVDRip.x264_by_bog3417
    Дата кодирования : UTC 2015-06-27 19: 40: 01
    Программа кодирования : mkvmerge v7.9.0 (;Birds;) 64bit
    Библиотека кодирования : libebml v1.3.1 + libmatroska v1.4.2
    Видео
    Идентификатор : 1
    Формат : AVC
    Формат/Информация : Advanced Video Codec
    Профиль формата : High@L4.1
    Параметр CABAC формата : Да
    Параметр ReFrames формата : 10 кадров
    Идентификатор кодека : V_MPEG4/ISO/AVC
    Продолжительность : 1 ч. 44 м.
    Битрейт : 1418 Кбит/сек
    Ширина : 720 пикселей
    Высота : 304 пикселя
    Соотношение сторон : 2, 35: 1
    Режим частоты кадров : Постоянный
    Частота кадров : 25, 000 кадров/сек
    Цветовое пространство : YUV
    Субдискретизация насыщенности : 4: 2: 0
    Битовая глубина : 8 бит
    Тип развёртки : Прогрессивная
    Бит/(Пиксели*Кадры) : 0.259
    Размер потока : 1, 01 Гбайт (74%)
    Заголовок : by_bog3417
    Библиотека кодирования : x264 core 146 r2538 121396c
    Настройки программы : cabac=1/ref=10/deblock=1: -3: -3/analyse=0x3: 0x33/me=umh/subme=10/psy=1/psy_rd=1.00: 0.00/mixed_ref=1/me_range=32/chroma_me=1/trellis=2/8x8dct=1/cqm=0/deadzone=21, 11/fast_pskip=0/chroma_qp_offset=-2/threads=12/lookahead_threads=2/sliced_threads=0/nr=0/decimate=0/interlaced=0/bluray_compat=0/constrained_intra=0/bframes=10/b_pyramid=2/b_adapt=2/b_bias=0/direct=3/weightb=1/open_gop=0/weightp=2/keyint=250/keyint_min=25/scenecut=40/intra_refresh=0/rc=2pass/mbtree=0/bitrate=1418/ratetol=1.0/qcomp=0.60/qpmin=0/qpmax=69/qpstep=4/cplxblur=20.0/qblur=0.5/ip_ratio=1.40/pb_ratio=1.30/aq=1: 1.00
    Язык : English
    Default : Да
    Forced : Нет
    Аудио
    Идентификатор : 2
    Формат : AC-3
    Формат/Информация : Audio Coding 3
    Расширение режима : CM (complete main)
    Параметр Endianness формата : Big
    Идентификатор кодека : A_AC3
    Продолжительность : 1 ч. 44 м.
    Вид битрейта : Постоянный
    Битрейт : 448 Кбит/сек
    Каналы : 6 каналов
    Расположение каналов : Front: L C R, Side: L R, LFE
    Частота : 48, 0 КГц
    Метод сжатия : С потерями
    Размер потока : 336 Мбайт (24%)
    Default : Да
    Forced : Нет
    Меню
    00: 00: 00.000 : en: 00: 00: 00.000
    00: 07: 36.400 : en: 00: 07: 36.400
    00: 16: 37.360 : en: 00: 16: 37.360
    00: 28: 33.520 : en: 00: 28: 33.520
    00: 37: 31.600 : en: 00: 37: 31.600
    00: 47: 00.400 : en: 00: 47: 00.400
    00: 55: 09.520 : en: 00: 55: 09.520
    01: 04: 44.560 : en: 01: 04: 44.560
    01: 13: 52.240 : en: 01: 13: 52.240
    01: 20: 49.360 : en: 01: 20: 49.360
    01: 27: 15.280 : en: 01: 27: 15.280
    01: 38: 10.480 : en: 01: 38: 10.480
    01: 44: 55.120 : en: 01: 44: 55.120

    Скриншоты




    Онлайн видео Единичка (2015) DVDRip-AVC


    Размер скачиваемого торрента: 1.37 GB (1468978199 Bytes)

    Единичка (2015) DVDRip-AVC | Лицензия
    загрузка...
    Рейтинг →
     (голосов: 1, оценка 5/5, голосовать можно 1 раз )

    Другие торренты по теме:

  • Единичка (2015) DVDRip
  • Единичка (2015) DVDRip | Лицензия
  • Единичка (2015) DVDRip | Лицензия
  • Единичка (2015) DVD9 | Лицензия
  • Единичка (2015) DVDRip-AVC от ExKinoRay | Лицензия
  • Единичка (2015) DVDRip от Fox 2015 | КПК | Лицензия
  • Единичка (2015) DVD5 от Generalfilm
  • Единичка (2015) DVDRip от Scarabey | Лицензия


    • Комментарии (0):

      Информация

      Информация

        Посетители, находящиеся в группе Гости, не могут оставлять комментарии в данной новости.

        ↓ Меню



        ↓ Опрос

        А Вы добавили сайт в закладки?
        Да
        Не


        Top 10 за месяц (Фильмы)