.
Авторизация | Регистрация
» » Континуум / Project Almanac (2015) BDRip 720p от HDClub | D | Лицензия скачать торрент бесплатно




    Континуум / Project Almanac (2015) BDRip 720p от HDClub | D | Лицензия скачать торрент бесплатно

    Опубликовал: Админ | Дата: 29-06-2015, 05:05 | Просмотров: 64



    Детально о кино
    Русское название: Континуум
    Русское название в мировом прокате: Project Almanac
    Создали в: 2014
    Категория жанра: Фантастика, триллер
    Снималось в: США, Insurge Pictures, MTV Films, Paramount Pictures
    Главный режиссер: Дин Израэлайт

    Актеры
    Джонни Уэстон, София Блэк-Д’Элиа, Сэм Лернер, Аллен Евангелиста, Вирджиния Гарднер, Эми Ландекер, Гари Викс, Максен Линтц, Гэри Граббс, Мишель ДеФрайтс, Карри Стоун, Джамила Томпсон, Хиллари Харли, Кортни Бауэрс, Патрик Джонсон, Джошуа Брэйди, Даниэль Риззо, Михаэль Бейтс, Онира Саттервайт, Аманда Ярош

    Сюжет фильма
    Однажды после просмотра старой пленки со дня рождения уже взрослый именинник заметил себя настоящего в отражении на видео. Съедаемые любопытством, друзья нашли чертежи таинственного устройства, похожего на машину времени. Они решили доделать ее и испробовать, чтобы вернуться в прошлое и исправить некоторые ошибки. Но что будет, если группа отвязных тинейджеров случайно завладеет машиной времени? Однозначно, будет весело! Пока кто-то не нарушит правила, и веселая шутка не обернется кошмаром. Надо торопиться восстановить континуум, пока мир окончательно не разрушен!
    Файл
    Качество фильма: BDRip (720p)
    Информация о видео: MPEG-4 AVC, 7800 Кбит/с, 1280x534
    Информация о звуке: Русский (AC3, 6 ch, 640 Кбит/с), английский (DTS, 6 ch, 1510 Кбит/с)
    Размер скачиваемого торрента: 7.51 ГБ
    Время просмотра: 01: 46: 12
    Перевод текста: Дублированный лицензия
    Субтитры: Русские, английские, украинские
    MI
    Общее
    Уникальный идентификатор : 225747532863637986844759155779716115128 (0xA9D564B204FED0D28448CB36DA19EAB8)
    Полное имя : C: Project.Almanac.2015.720p.BluRay.Rus.Eng.HDCLUB.mkv
    Формат : Matroska
    Версия формата : Version 2
    Размер файла : 7, 51 Гбайт
    Продолжительность : 1 ч. 46 м.
    Общий поток : 10, 1 Мбит/сек
    Название фильма : Project Almanac (2015) - Release for HDCLUB
    Дата кодирования : UTC 2015-06-28 09: 36: 15
    Программа кодирования : mkvmerge v3.4.0 (;Rapunzel;) built on May 15 2010 09: 38: 20
    Библиотека кодирования : libebml v0.8.0 + libmatroska v0.9.0
    Attachements : Cover.png
    Видео
    Идентификатор : 1
    Формат : AVC
    Формат/Информация : Advanced Video Codec
    Профиль формата : High@L4.1
    Параметр CABAC формата : Да
    Параметр ReFrames формата : 12 кадров
    Идентификатор кодека : V_MPEG4/ISO/AVC
    Продолжительность : 1 ч. 46 м.
    Битрейт : 7770 Кбит/сек
    Ширина : 1280 пикселей
    Высота : 534 пикселя
    Соотношение сторон : 2, 40: 1
    Режим частоты кадров : Постоянный
    Частота кадров : 23, 976 кадра/сек
    Цветовое пространство : YUV
    Субдискретизация насыщенности : 4: 2: 0
    Битовая глубина : 8 бит
    Тип развёртки : Прогрессивная
    Бит/(Пиксели*Кадры) : 0.474
    Размер потока : 5, 76 Гбайт (77%)
    Заголовок : Project Almanac (2015) - Release for HDCLUB
    Библиотека кодирования : x264 core 142 r2431+42 c69a006 tMod 8-bit@all X86_64
    Настройки программы : cabac=1/ref=12/deblock=1: -3: -3/analyse=0x3: 0x133/me=tesa/subme=11/psy=1/fade_compensate=0.00/psy_rd=1.08: 0.00/mixed_ref=1/me_range=32/chroma_me=1/trellis=2/8x8dct=1/cqm=0/deadzone=21, 11/fast_pskip=1/chroma_qp_offset=-2/threads=12/lookahead_threads=3/sliced_threads=0/nr=0/decimate=0/interlaced=0/bluray_compat=0/constrained_intra=0/fgo=0/bframes=10/b_pyramid=2/b_adapt=2/b_bias=0/direct=3/weightb=1/open_gop=0/weightp=2/keyint=250/keyint_min=23/scenecut=40/intra_refresh=0/rc_lookahead=60/rc=crf/mbtree=0/crf=16.8000/qcomp=0.60/qpmin=0: 0: 0/qpmax=69: 69: 69/qpstep=4/vbv_maxrate=62500/vbv_bufsize=78125/crf_max=0.0/nal_hrd=none/filler=0/ip_ratio=1.10/pb_ratio=1.10/aq=1: 0.65/aq-sensitivity=10.00/aq-factor=1.00: 1.00: 1.00/aq2=0/aq3=0/zones=50, 526, crf=15/944, 966, crf=14/145758, 152793, crf=21
    Язык : English
    Default : Да
    Forced : Нет
    Цветовой диапазон : Limited
    Коэффициенты матрицы : BT.709
    Аудио #1
    Идентификатор : 2
    Формат : AC-3
    Формат/Информация : Audio Coding 3
    Расширение режима : CM (complete main)
    Параметр Endianness формата : Big
    Идентификатор кодека : A_AC3
    Продолжительность : 1 ч. 46 м.
    Вид битрейта : Постоянный
    Битрейт : 640 Кбит/сек
    Каналы : 6 каналов
    Расположение каналов : Front: L C R, Side: L R, LFE
    Частота : 48, 0 КГц
    Метод сжатия : С потерями
    Размер потока : 486 Мбайт (6%)
    Заголовок : AC3 5.1 @ 640 kbps - DUB, Blu-ray CEE
    Язык : Russian
    Default : Да
    Forced : Нет
    Аудио #2
    Идентификатор : 3
    Формат : DTS
    Формат/Информация : Digital Theater Systems
    Режим : 16
    Параметр Endianness формата : Big
    Идентификатор кодека : A_DTS
    Продолжительность : 1 ч. 46 м.
    Вид битрейта : Постоянный
    Битрейт : 1509 Кбит/сек
    Каналы : 6 каналов
    Расположение каналов : Front: L C R, Side: L R, LFE
    Частота : 48, 0 КГц
    Битовая глубина : 24 бит
    Метод сжатия : С потерями
    Размер потока : 1, 12 Гбайт (15%)
    Заголовок : DTS 5.1 @ 1536 kbps
    Язык : English
    Default : Нет
    Forced : Нет
    Текст #1
    Идентификатор : 4
    Формат : UTF-8
    Идентификатор кодека : S_TEXT/UTF8
    Идентификатор кодека/Информация : UTF-8 Plain Text
    Заголовок : Forced, iTunes
    Язык : Russian
    Default : Да
    Forced : Нет
    Текст #2
    Идентификатор : 5
    Формат : UTF-8
    Идентификатор кодека : S_TEXT/UTF8
    Идентификатор кодека/Информация : UTF-8 Plain Text
    Заголовок : iTunes
    Язык : Russian
    Default : Нет
    Forced : Нет
    Текст #3
    Идентификатор : 6
    Формат : UTF-8
    Идентификатор кодека : S_TEXT/UTF8
    Идентификатор кодека/Информация : UTF-8 Plain Text
    Заголовок : Blu-ray CEE
    Язык : Ukrainian
    Default : Нет
    Forced : Нет
    Текст #4
    Идентификатор : 7
    Формат : UTF-8
    Идентификатор кодека : S_TEXT/UTF8
    Идентификатор кодека/Информация : UTF-8 Plain Text
    Заголовок : SDH
    Язык : English
    Default : Нет
    Forced : Нет
    Текст #5
    Идентификатор : 8
    Формат : UTF-8
    Идентификатор кодека : S_TEXT/UTF8
    Идентификатор кодека/Информация : UTF-8 Plain Text
    Заголовок : SDH-COLORED
    Язык : English
    Default : Нет
    Forced : Нет
    Меню
    00: 00: 00.000 : en: 00: 00: 00.000
    00: 07: 56.309 : en: 00: 07: 56.309
    00: 15: 20.211 : en: 00: 15: 20.211
    00: 23: 49.803 : en: 00: 23: 49.803
    00: 31: 15.665 : en: 00: 31: 15.665
    00: 39: 19.274 : en: 00: 39: 19.274
    00: 46: 58.274 : en: 00: 46: 58.274
    00: 54: 11.957 : en: 00: 54: 11.957
    01: 00: 55.485 : en: 01: 00: 55.485
    01: 09: 43.304 : en: 01: 09: 43.304
    01: 16: 24.371 : en: 01: 16: 24.371
    01: 23: 07.733 : en: 01: 23: 07.733
    01: 32: 20.618 : en: 01: 32: 20.618
    01: 41: 19.323 : en: 01: 41: 19.323

    Скриншоты



    Релиз подготовил:

    Онлайн видео Континуум


    Размер скачиваемого торрента: 7.51 GB (8062260248 Bytes)

    Континуум/Project Almanac (2015) BDRip 720p от HDClub | D | Лицензия
    загрузка...
    Рейтинг →
     (голосов: 1, оценка 5/5, голосовать можно 1 раз )

    Другие торренты по теме:

  • Континуум / Continuum (2012) BDRip | LostFilm торрент скачать бесплатно
  • Континуум: Вебсериал / Continuum Web Series (2012) WEBRip торрент скачать бесплатно
  • Континуум / Continuum (2013) WEB-DLRip | NewStudio торрент скачать бесплатно
  • Континуум / Continuum (2013) WEB-DL 720p | LostFilm торрент скачать бесплатно
  • Звездные врата: Континуум / Stargate: Continuum (2008) HDRip от Generalfilm | КПК | ТВ3 торрент скачать бесплатно
  • Континуум / Continuum (2012-2013) WEB-DLRip | LostFilm скачать через торрент бесплатно
  • Континуум / Continuum (2014) WEB-DL 720p | NewStudio скачать через торрент бесплатно
  • Континуум / Continuum (2014) WEB-DL 1080p | NewStudio скачать через торрент бесплатно


    • Комментарии (0):

      Информация

      Информация

        Посетители, находящиеся в группе Гости, не могут оставлять комментарии в данной новости.

        ↓ Меню



        ↓ Опрос

        А Вы добавили сайт в закладки?
        Да
        Не


        Top 10 за неделю (Фильмы)