.
Авторизация | Регистрация
Хочешь лучшие торренты? Добавь свой email!
Добавить
» » Мешок с костями / Bag Of Bones (2011) WEB-DLRip | A торрент скачать бесплатно




    Мешок с костями / Bag Of Bones (2011) WEB-DLRip | A торрент скачать бесплатно

    Опубликовал: Админ | Дата: 29-06-2015, 11:47 | Просмотров: 126



    Детально о кино
    Русское название: Мешок с костями
    Русское название в мировом прокате: Bag of Bones
    Создали в: 2011
    Категория жанра: ужасы, драма, детектив
    Главный режиссер: Мик Гэррис

    Актеры
    Пирс Броснан, Мелисса Джордж, Мэтт Фрюэр, Джейсон Пристли, Аннабет Гиш, Аника Нони Роуз, Уильям Шэллерт, Кэйтлин Кармайкл, Гари Леверт

    Сюжет фильма

    После гибели жены писатель Майк Нунен отправляется к их старому дому возле озера Темный след, где она провела последние три года. Там он пытается найти вдохновение и разгадать историю местной девочки, но его начинают преследовать реалистические кошмары. Его жена пытается его уберечь, но кроме неё с потустороннего мира к Майку тянутся и другие…
    Сэмпл 1 серия, Сэмпл 2 серия
    Снималось в: США
    Киностудия: Nice Guy Productions, Sennet Entertainment, Headline Pictures
    Время просмотра: 01: 19: 56 + 01: 23: 29
    Перевод текста: Авторский (одноголосый закадровый) Михаил Иванов , Авторский (одноголосый закадровый) Андрей Дольский
    Файл
    Кодек для видео: XviD
    Качество фильма: WEB-DLRip
    Информация о видео:
    Серия#1: 704x400 (1.76: 1), 23.976 fps, XviD build 73 ~1712 kbps avg, 0.25 bit/pixel
    Серия#2: 704x400 (1.76: 1), 23.976 fps, XviD build 73 ~1767 kbps avg, 0.26 bit/pixel
    Информация о звуке 1: 48 kHz, AC3 Dolby Digital, 3/2 (L, C, R, l, r) + LFE ch, ~384 kbps Иванов
    Информация о звуке 2: 48 kHz, AC3 Dolby Digital, 3/2 (L, C, R, l, r) + LFE ch, ~384 kbps Дольский
    Субтитры: нет
    Доп.инфо
    за Ивановаспасибо Wolf_Larsen
    за Дольскогоспасибо Daniel Rock
    MediaInfo
    Полное имя : Мешок с костями 1 серия.avi
    Формат : AVI
    Формат/Информация : Audio Video Interleave
    Размер файла : 1, 39 Гбайт
    Продолжительность : 1 ч. 19 м.
    Общий поток : 2496 Кбит/сек
    Программа кодирования : VirtualDubMod 1.5.10.2 (build 2540/release)
    Библиотека кодирования : VirtualDubMod build 2540/release
    Видео
    Идентификатор : 0
    Формат : MPEG-4 Visual
    Профиль формата : Advanced Simple@L5
    Параметр BVOP формата : 2
    Параметр QPel формата : Нет
    Параметр GMC формата : Без точки перехода
    Параметр матрицы формата : Выборочная
    Идентификатор кодека : XVID
    Идентификатор кодека/Подсказка : XviD
    Продолжительность : 1 ч. 19 м.
    Битрейт : 1714 Кбит/сек
    Ширина : 704 пикселя
    Высота : 400 пикселей
    Соотношение сторон : 16: 9
    Частота кадров : 23, 976 кадра/сек
    Цветовое пространство : YUV
    Субдискретизация насыщенности : 4: 2: 0
    Битовая глубина : 8 бит
    Тип развёртки : Прогрессивная
    Метод сжатия : С потерями
    Бит/(Пиксели*Кадры) : 0.254
    Размер потока : 980 Мбайт (69%)
    Библиотека кодирования : XviD 73
    Аудио #1
    Идентификатор : 1
    Формат : AC-3
    Формат/Информация : Audio Coding 3
    Расширение режима : CM (complete main)
    Параметр Endianness формата : Big
    Идентификатор кодека : 2000
    Продолжительность : 1 ч. 19 м.
    Вид битрейта : Постоянный
    Битрейт : 384 Кбит/сек
    Каналы : 6 каналов
    Расположение каналов : Front: L C R, Side: L R, LFE
    Частота : 48, 0 КГц
    Битовая глубина : 16 бит
    Метод сжатия : С потерями
    Размер потока : 220 Мбайт (15%)
    Выравнивание : Разделение по промежуткам
    Продолжительность промежутка : 42 мс. (1, 00 видеокадр)
    Время предзагрузки промежутка : 500 мс.
    Заголовок : Иванов
    Аудио #2
    Идентификатор : 2
    Формат : AC-3
    Формат/Информация : Audio Coding 3
    Расширение режима : CM (complete main)
    Параметр Endianness формата : Big
    Идентификатор кодека : 2000
    Продолжительность : 1 ч. 19 м.
    Вид битрейта : Постоянный
    Битрейт : 384 Кбит/сек
    Каналы : 6 каналов
    Расположение каналов : Front: L C R, Side: L R, LFE
    Частота : 48, 0 КГц
    Битовая глубина : 16 бит
    Метод сжатия : С потерями
    Размер потока : 220 Мбайт (15%)
    Выравнивание : Разделение по промежуткам
    Продолжительность промежутка : 42 мс. (1, 00 видеокадр)
    Время предзагрузки промежутка : 500 мс.
    Заголовок : Дольский

    Полное имя : Мешок с костями 2 серия.avi
    Формат : AVI
    Формат/Информация : Audio Video Interleave
    Размер файла : 1, 49 Гбайт
    Продолжительность : 1 ч. 23 м.
    Общий поток : 2551 Кбит/сек
    Программа кодирования : VirtualDubMod 1.5.10.2 (build 2540/release)
    Библиотека кодирования : VirtualDubMod build 2540/release
    Видео
    Идентификатор : 0
    Формат : MPEG-4 Visual
    Профиль формата : Advanced Simple@L5
    Параметр BVOP формата : 2
    Параметр QPel формата : Нет
    Параметр GMC формата : Без точки перехода
    Параметр матрицы формата : Выборочная
    Идентификатор кодека : XVID
    Идентификатор кодека/Подсказка : XviD
    Продолжительность : 1 ч. 23 м.
    Битрейт : 1769 Кбит/сек
    Ширина : 704 пикселя
    Высота : 400 пикселей
    Соотношение сторон : 16: 9
    Частота кадров : 23, 976 кадра/сек
    Цветовое пространство : YUV
    Субдискретизация насыщенности : 4: 2: 0
    Битовая глубина : 8 бит
    Тип развёртки : Прогрессивная
    Метод сжатия : С потерями
    Бит/(Пиксели*Кадры) : 0.262
    Размер потока : 1, 03 Гбайт (69%)
    Библиотека кодирования : XviD 73
    Аудио #1
    Идентификатор : 1
    Формат : AC-3
    Формат/Информация : Audio Coding 3
    Расширение режима : CM (complete main)
    Параметр Endianness формата : Big
    Идентификатор кодека : 2000
    Продолжительность : 1 ч. 23 м.
    Вид битрейта : Постоянный
    Битрейт : 384 Кбит/сек
    Каналы : 6 каналов
    Расположение каналов : Front: L C R, Side: L R, LFE
    Частота : 48, 0 КГц
    Битовая глубина : 16 бит
    Метод сжатия : С потерями
    Размер потока : 229 Мбайт (15%)
    Выравнивание : Разделение по промежуткам
    Продолжительность промежутка : 42 мс. (1, 00 видеокадр)
    Время предзагрузки промежутка : 500 мс.
    Заголовок : Иванов
    Аудио #2
    Идентификатор : 2
    Формат : AC-3
    Формат/Информация : Audio Coding 3
    Расширение режима : CM (complete main)
    Параметр Endianness формата : Big
    Идентификатор кодека : 2000
    Продолжительность : 1 ч. 23 м.
    Вид битрейта : Постоянный
    Битрейт : 384 Кбит/сек
    Каналы : 6 каналов
    Расположение каналов : Front: L C R, Side: L R, LFE
    Частота : 48, 0 КГц
    Битовая глубина : 16 бит
    Метод сжатия : С потерями
    Размер потока : 229 Мбайт (15%)
    Выравнивание : Разделение по промежуткам
    Продолжительность промежутка : 42 мс. (1, 00 видеокадр)
    Время предзагрузки промежутка : 500 мс.
    Заголовок : Дольский
    Скриншоты

    Залил: JIuI3epIIyJIb

    Онлайн видео Мешок с костями


    Размер скачиваемого торрента: 2.88 GB (3093243904 Bytes)

    Мешок с костями/Bag Of Bones (2011) WEB-DLRip | A
    загрузка...
    Рейтинг →
     (голосов: 1, оценка 4/5, голосовать можно 1 раз )

    Другие торренты по теме:

  • Мешок с молотками / A bag of hammers (2011) DVDRip | Sub
  • Стивен Кинг: Мешок с костями / Stephen King: Bag of bones (2011) WEB-DL 720p от MediaClub
  • Мешок с костями / Bag Of Bones (2011) WEB-DLRip | ТВ3
  • Мешок с костями / Bag Of Bones (2011) HDRip от Scarabey | P
  • Мешок с костями / Stephen King: Bag of bones (2011) HDRip от Deadmauvlad | D | Лицензия
  • Мешок с костями / Stephen King: Bag of bones (2011)
  • Мешок с мукой / Le sac de farine (2012) DVB | Sub
  • Следствие вели... с Леонидом Каневским (Золотой мешок) / 2015 / РУ / HDTVRip


    • Комментарии (0):

      Информация

      Информация

        Посетители, находящиеся в группе Гости, не могут оставлять комментарии в данной новости.

        ↓ Меню



        ↓ Опрос

        А Вы добавили сайт в закладки?
        Да
        Не


        Top 10 за месяц (Фильмы)