.
Авторизация | Регистрация
Хочешь лучшие торренты? Добавь свой email!
Добавить
» » Холм одного дерева / One Tree Hill (2003-2004) WEB-DL 720p | НТВ торрент скачать бесплатно




    Холм одного дерева / One Tree Hill (2003-2004) WEB-DL 720p | НТВ торрент скачать бесплатно

    Опубликовал: Админ | Дата: 30-06-2015, 05:01 | Просмотров: 108



    Информация о сериале
    Русское название: Холм одного дерева
    Русское название в мировом прокате: One Tree Hill
    Годы выхода: 2003-2004
    Категория жанра: драма, спорт
    Автор идеи: Марк Шван/Mark Schwahn/
    Главный режиссеры: Грегори Прэндж/Gregory Prange/ , Пол Йоханссон/Paul Johansson/ , Марк Шван/Mark Schwahn/ и др.

    Актеры
    Чад Майкл Мюррэй/Chad Michael Murray/ , Джеймс Лэфферти/James Lafferty/ , Хилари Бертон/Hilarie Burton/ , Бетани Джои Ленц/Bethany Joy Lenz/ , Пол Йоханссон/Paul Johansson/ , София Буш/Sophia Bush/ , Бэрри Корбин/Barry Corbin/ , Крэйг Шеффер/Craig Sheffer/ , Мойра Келли/Moira Kelly/ , Барбара Элин Вудс/Barbara Alyn Woods/ и др.
    О сериале:
    Помимо любви к баскетболу, кажется, что у Лукаса и Нейтена, двух молодых людей, нет ничего общего. За исключением темной тайны, заключающейся в том, что у них один отец. Высокомерный и уверенный, Нейтен — звезда баскетбольной команды средней школы и принадлежит самой богатой семье в городе.
    Тихий и задумчивый, Лукас — единственный ребенок матери-одиночки. Он всегда держался на расстоянии от Нейтена. Но их жизни сталкиваются, когда Лукас попадает в команду Нейтена.

    Снималось в: США
    Студии: Tollin/Robbins Productions/Warner Bros. Television
    Время просмотра: 22 x ~ 00: 43: 00
    Перевод текста: Профессиональный (многоголосый, закадровый) -НТВ+ по заказу НТВ
    Файл
    Кодек для видео: H.264
    Качество фильма: WEB-DL 720p
    Информация о видео: 1280x720 at 23.976 fps, MPEG-4 AVC, ~4000 kbps avg
    Информация о звуке#1: Russian: 48 kHz, AC3, 2/0 (L, R) ch, ~192.00 kbps avg |Многоголосый закадровый, НТВ |
    Информация о звуке#2: English: 48 kHz, AC3, 2/0 (L, R) ch, ~192.00 kbps avg |Оригинал|
    Субтитры: none
    Скриншоты

    MediaInfo
    General
    Complete name : One.Tree.Hill.S01E01.Pilot.720p.WEB-DL.NTV.mkv
    Format : Matroska
    Format version : Version 2
    File size : 1.38 GiB
    Duration : 42mn 30s
    Overall bit rate : 4 641 Kbps
    Encoded date : UTC 2011-06-26 16: 26: 27
    Writing application : mkvmerge v4.4.0 (;Die Wiederkehr;) сборка от Oct 31 2010 21: 52: 48
    Writing library : libebml v1.0.0 + libmatroska v1.0.0
    Video
    ID : 1
    Format : AVC
    Format/Info : Advanced Video Codec
    Format profile : High@L3.1
    Format settings, CABAC : No
    Format settings, ReFrames : 2 frames
    Muxing mode : Header stripping
    Codec ID : V_MPEG4/ISO/AVC
    Duration : 42mn 30s
    Bit rate : 4 165 Kbps
    Width : 1 280 pixels
    Height : 720 pixels
    Display aspect ratio : 16: 9
    Frame rate mode : Constant
    Frame rate : 23.976 fps
    Color space : YUV
    Chroma subsampling : 4: 2: 0
    Bit depth : 8 bits
    Scan type : Progressive
    Bits/(Pixel*Frame) : 0.188
    Stream size : 1.24 GiB (90%)
    Language : English
    Default : Yes
    Forced : No
    Color range : Limited
    Color primaries : BT.709
    Transfer characteristics : BT.709
    Matrix coefficients : BT.709
    Audio #1
    ID : 2
    Format : AC-3
    Format/Info : Audio Coding 3
    Mode extension : CM (complete main)
    Format settings, Endianness : Big
    Muxing mode : Header stripping
    Codec ID : A_AC3
    Duration : 42mn 30s
    Bit rate mode : Constant
    Bit rate : 192 Kbps
    Channel(s) : 2 channels
    Channel positions : Front: L R
    Sampling rate : 48.0 KHz
    Compression mode : Lossy
    Stream size : 58.4 MiB (4%)
    Title : НТВ+
    Language : Russian
    Default : Yes
    Forced : No
    Audio #2
    ID : 3
    Format : AC-3
    Format/Info : Audio Coding 3
    Mode extension : CM (complete main)
    Format settings, Endianness : Big
    Muxing mode : Header stripping
    Codec ID : A_AC3
    Duration : 42mn 30s
    Bit rate mode : Constant
    Bit rate : 192 Kbps
    Channel(s) : 2 channels
    Channel positions : Front: L R
    Sampling rate : 48.0 KHz
    Compression mode : Lossy
    Stream size : 58.4 MiB (4%)
    Language : English
    Default : No
    Forced : No
    Список серий
    01. Pilot/Пилотная серия
    02. The Places You Have Come to Fear the Most/Места, пугающие больше всего
    03. Are You True?/Ты настоящий?
    04. Crash Into You/Без ума от тебя
    05. All That You Can;t Leave Behind/Всё, о чём ты не можешь забыть
    06. Every Night Is Another Story/Каждая ночь - новая история
    07. Life in a Glass House/Жизнь в стеклянном доме
    08. The Search for Something More/В поисках чего-то большего
    09. With Arms Outstretched/С распростёртыми объятиями
    10. You Gotta Go There to Come Back/Ты должен побывать там, чтобы вернуться
    11. The Living Years/Годы нашей жизни
    12. Crash Course in Polite Conversations/Слова, которых надо избегать
    13. Hanging by a Moment/Застигнутые врасплох
    14. I Shall Believe/Я поверю
    15. Suddenly Everything Has Changed/Внезапно всё изменилось
    16. The First Cut Is the Deepest/Слово - не воробей
    17. Spirit in the Night/Дух в ночи
    18. To Wish Impossible Things/Желая невозможного
    19. How Can You Be Sure?/Ты уверен?
    20. What Is and What Should Never Be/Что есть и чего никогда не должно произойти
    21. The Leaving Song/Прощальная песня
    22. The Games That Play Us/Игры, которые играют нами


    Онлайн видео Холм одного дерева


    Размер скачиваемого торрента: 29.55 GB (31733605724 Bytes)

    Холм одного дерева/One Tree Hill (2003-2004) WEB-DL 720p | НТВ
    загрузка...
    Рейтинг →
     (голосов: 1, оценка 3/5, голосовать можно 1 раз )

    Другие торренты по теме:

  • Холм одного дерева / One Tree Hill (2003-2012) WEB-DLRip | P, L
  • Холм Одного Дерева / One Tree Hill (2004) WEB-DL 720p | HTB
  • Холм Одного Дерева / One Tree Hill (2003-2004) WEB-DL 720p | HTB
  • Холм одного дерева / One Tree Hill (2003-2012) WEB-DLRip | P | НТВ
  • Холм одного дерева / One Tree Hill (2004-2005) WEB-DL 720p | НТВ
  • Холм одного дерева / One Tree Hill (2008) WEB-DL 720p | НТВ


    • Комментарии (0):

      Информация

      Информация

        Посетители, находящиеся в группе Гости, не могут оставлять комментарии в данной новости.

        ↓ Меню



        ↓ Опрос

        А Вы добавили сайт в закладки?
        Да
        Не


        Top 10 за месяц (Фильмы)