.
Авторизация | Регистрация
» » Давай убьем дядю / Lets Kill Uncle (1966) TVRip | L1 скачать торрент бесплатно




    Давай убьем дядю / Lets Kill Uncle (1966) TVRip | L1 скачать торрент бесплатно

    Опубликовал: Админ | Дата: 30-06-2015, 05:09 | Просмотров: 126



    Детально о кино
    Русское название: Давай убьем дядю
    Русское название в мировом прокате: Let;s Kill Uncle/Before Uncle Kills Us
    Создали в: 1966
    Категория жанра: ужасы, триллер
    Главный режиссер: Уильям Кастл

    Актеры
    Найджел Грин, Мэри Бэдхэм, Пэт Карди/Pat Cardi, Роберт Пикеринг, Линда Лоусон, Реф Санчес, Нестор Пайва

    Сюжет фильма

    Двенадцатилетний паренёк, только что ставший наследником огромного состояния, приезжает погостить на тропический остров к своему дяде, бывшему агенту британской разведки, и узнаёт, что добрый дядюшка хочет избавиться от него, чтобы присвоить деньги себе.

    Снималось в: Великобритания, США
    Время просмотра: 01: 27: 31
    Перевод текста: Любительский (одноголосый, закадровый)
    Файл
    Тип видео: AVI
    Качество фильма: TVRip
    Информация о видео: 640x480 (1.33: 1), 29.970 fps, XviD MPEG-4 ~1430 kbps avg, 0.16 bit/pixel
    Информация о звуке 1: 48 kHz, MPEG Layer 3, 2 ch, ~160.00 kbps avg(Русский)
    Информация о звуке 2: 48 kHz, MPEG Layer 3, 1 ch, ~80.00 kbps avg(Английский)
    Субтитры: русские
    Семпл
    Media Info
    Общее
    Полное имя : F: С моей озвучкойДавай убьем дядюLet;s Kill Uncle.avi
    Формат : AVI
    Формат/Информация : Audio Video Interleave
    Размер файла : 1, 03 Гбайт
    Продолжительность : 1 ч. 27 м.
    Общий поток : 1689 Кбит/сек
    Программа кодирования : VirtualDubModRus 1.5.10.2 (build 2542/release)
    Библиотека кодирования : VirtualDubMod build 2542/release
    Видео
    Идентификатор : 0
    Формат : MPEG-4 Visual
    Профиль формата : Advanced Simple@L5
    Параметр BVOP формата : 1
    Параметр QPel формата : Нет
    Параметр GMC формата : Без точки перехода
    Параметр матрицы формата : Default (H.263)
    Режим смешивания : Сжатый битовый поток
    Идентификатор кодека : XVID
    Идентификатор кодека/Подсказка : XviD
    Продолжительность : 1 ч. 27 м.
    Битрейт : 1432 Кбит/сек
    Ширина : 640 пикселей
    Высота : 480 пикселей
    Соотношение сторон : 4: 3
    Частота кадров : 29, 970 кадров/сек
    Цветовое пространство : YUV
    Субдискретизация насыщенности : 4: 2: 0
    Битовая глубина : 8 бит
    Тип развёртки : Прогрессивная
    Метод сжатия : С потерями
    Бит/(Пиксели*Кадры) : 0.155
    Размер потока : 896 Мбайт (85%)
    Библиотека кодирования : XviD 1.2.0.dev47 (UTC 2006-11-01)
    Аудио #1
    Идентификатор : 1
    Формат : MPEG Audio
    Версия формата : Version 1
    Профиль формата : Layer 3
    Режим : Joint stereo
    Расширение режима : MS Stereo
    Идентификатор кодека : 55
    Идентификатор кодека/Подсказка : MP3
    Продолжительность : 1 ч. 27 м.
    Вид битрейта : Постоянный
    Битрейт : 160 Кбит/сек
    Каналы : 2 канала
    Частота : 48, 0 КГц
    Метод сжатия : С потерями
    Размер потока : 100 Мбайт (9%)
    Выравнивание : Соединение по промежуткам
    Продолжительность промежутка : 33 мс. (1, 00 видеокадр)
    Время предзагрузки промежутка : 504 мс.
    Библиотека кодирования : LAME3.96
    Аудио #2
    Идентификатор : 2
    Формат : MPEG Audio
    Версия формата : Version 1
    Профиль формата : Layer 3
    Идентификатор кодека : 55
    Идентификатор кодека/Подсказка : MP3
    Продолжительность : 1 ч. 27 м.
    Вид битрейта : Постоянный
    Битрейт : 80, 0 Кбит/сек
    Каналы : 1 канал
    Частота : 48, 0 КГц
    Метод сжатия : С потерями
    Размер потока : 50, 1 Мбайт (5%)
    Выравнивание : Разделение по промежуткам
    Продолжительность промежутка : 33 мс. (1, 00 видеокадр)
    Время предзагрузки промежутка : 500 мс.

    Скриншоты

    Залил: gigauri

    Онлайн видео Давай убьем дядю


    Размер скачиваемого торрента: 1.03 GB (1108921336 Bytes)

    Давай убьем дядю/Lets Kill Uncle (1966) TVRip | L1
    загрузка...
    Рейтинг →
     (голосов: 1, оценка 3/5, голосовать можно 1 раз )

    Другие торренты по теме:

  • Давай поженимся. Выпуски за 4 квартал (2012) SATRip торрент скачать бесплатно
  • Давай поженимся. Выпуски за 1 квартал (2013) SATRip торрент скачать бесплатно
  • Сборник - Дави на газ! Настоящие мужики не тормозят (2012) MP3 торрент скачать бесплатно
  • Давай поженимся (2013) SATRip торрент скачать бесплатно
  • Степан Разин и группа Атаман - А ну, давай! (1991) FLAC торрент скачать бесплатно
  • Давайте забудем об этом / Come non detto (2012) DVDRip | L1 торрент скачать бесплатно
  • Давай поженимся (2013) HDTVRip торрент скачать бесплатно
  • Давайте рассчитаемся / Paisa Vasool (2004) SATRip от Files-x | P торрент скачать бесплатно


    • Комментарии (0):

      Информация

      Информация

        Посетители, находящиеся в группе Гости, не могут оставлять комментарии в данной новости.

        ↓ Меню



        ↓ Опрос

        А Вы добавили сайт в закладки?
        Да
        Не


        Top 10 за неделю (Фильмы)