.
Авторизация | Регистрация
» » Эта ночь / Cette nuit-l... (1958) DVDRip | Sub скачать торрент бесплатно




    Эта ночь / Cette nuit-l... (1958) DVDRip | Sub скачать торрент бесплатно

    Опубликовал: Админ | Дата: 30-06-2015, 05:12 | Просмотров: 79



    Детально о кино
    Русское название: Капитан Фракасс
    Русское название в мировом прокате: Le Capitaine Fracasse
    Создали в: 1958
    Категория жанра: Детектив
    Главный режиссер: Морис Казенёв

    Актеры
    Милен Демонжо, Морис Роне, Жан Сервэ, Франсуаз Прево, Жан Лара, Юбер Ноэль, Флоренс Арно, Жильбер Эдар, Ив Арканель, Марк Делшниц

    Сюжет фильма
    Жан (Морис Роне) работает арт-директором в глянцевом журнале. Он женат на прекрасной модели Сильви (Милен Демонжо), расположения которой практически в открытую домогается его шеф и хозяин издательства Андре Реверди. Обуреваемый ревностью, Жан решается на отчаянный шаг - убийство своего босса.

    Снималось в: Франция, Soprofilms
    Время просмотра: 01: 30: 17
    Перевод текста: Отсутствует
    Файл
    Тип видео: AVI
    Качество фильма: DVDRip
    Информация о видео: XviD, 1950 Кбит/с, 656x384
    Информация о звуке: Французский (АС3, 2 ch, 192 Кбит/с)
    Субтитры: Русские
    Media Info
    Format : AVI
    Format/Info: Audio Video Interleave
    File size: 1.36 GiB
    Duration: 1h 30mn
    Overall bit rate: 2 153 Kbps
    Video
    ID: 0
    Format: MPEG-4 Visual
    Format profile: Advanced Simple@L5
    Format settings, BVOP: 1
    Format settings, QPel: No
    Format settings, GMC: No warppoints
    Format settings, Matrix: Default (MPEG)
    Codec ID: XVID
    Codec ID/Hint: XviD
    Duration: 1h 30mn
    Bit rate: 1 951 Kbps
    Width: 656 pixels
    Height: 384 pixels
    Display aspect ratio: 1.708
    Frame rate: 25.000 fps
    Color space: YUV
    Chroma subsampling: 4: 2: 0
    Bit depth: 8 bits
    Scan type: Progressive
    Compression mode: Lossy
    Bits/(Pixel*Frame): 0.310
    Stream size: 1.23 GiB (91%)
    Writing library: XviD 1.2.0.dev47 (UTC 2006-11-01)
    Audio
    ID: 1
    Format: AC-3
    Format/Info: Audio Coding 3
    Mode extension: CM (complete main)
    Format settings, Endianness: Big
    Codec ID: 2000
    Duration: 1h 30mn
    Bit rate mode: Constant
    Bit rate: 192 Kbps
    Channel(s): 2 channels
    Channel positions: Front: L R
    Sampling rate: 48.0 KHz
    Bit depth: 16 bits
    Compression mode: Lossy
    Stream size: 124 MiB (9%)
    Alignment: Split accross interleaves
    Interleave, duration: 40 ms (1.00 video frame)
    Interleave, preload duration : 500 ms

    Скриншоты

    Релиз-группа:
    Залил: gigauri

    Онлайн видео Эта ночь


    Размер скачиваемого торрента: 1.36 GB (1457845310 Bytes)

    Эта ночь/Cette nuit-l... (1958) DVDRip | Sub
    загрузка...
    Рейтинг →
     (голосов: 1, оценка 5/5, голосовать можно 1 раз )

    Другие торренты по теме:

  • Это была ночь перед Рождеством / Twas the Night Before Christmas (1974) BDRip-AVC от Тorrent-Хzona торрент скачать бесплатно
  • Это как день посреди ночи / Ce que le jour doit a la nuit (2012) HDRip | L2 торрент скачать бесплатно
  • Это как день посреди ночи / Ce que le jour doit la nuit (2012) BDRip 720p от Temperest скачать через торрент бесплатно
  • Это случилось однажды ночью (Одной счастливой ночью) / It Happened One Night / 1934 / ПМ / BDRip (720p) скачать торрент бесплатно
  • Это была ночь перед Рождеством / Twas the Night Before Christmas (1974) BDRip-AVC от Koenig | A скачать торрент бесплатно


    • Комментарии (0):

      Информация

      Информация

        Посетители, находящиеся в группе Гости, не могут оставлять комментарии в данной новости.

        ↓ Меню



        ↓ Опрос

        А Вы добавили сайт в закладки?
        Да
        Не


        Top 10 за неделю (Фильмы)