.
Авторизация | Регистрация
» » Горбун / Le Bossu (1997) HDRip от Leon-masl скачать торрент бесплатно




    Горбун / Le Bossu (1997) HDRip от Leon-masl скачать торрент бесплатно

    Опубликовал: Админ | Дата: 30-06-2015, 05:15 | Просмотров: 127



    Детально о кино
    Русское название: К бою (Горбун)
    Русское название в мировом прокате: Le Bossu
    Создали в: 1997
    Категория жанра: драма, приключения
    Главный режиссер: Филипп де Брока

    Актеры
    Даниель Отой , Фабрис Лукини, Венсан Перес , Мари Жиллен, Янн Коллетт, Жан-Франсуа Стевенен, Дидье Пэн, Чарли Нельсон, Клер Небу, Филипп Нуаре , Жак Серей, Ренато Скарпа, Джеймс Тьерри, Саша Бурдо, Марго Маргарит, Дэльфин Серина, Люк Пэлан, Дидье Гриньон, Брюно Кадильон

    Сюжет фильма

    Шестнадцать лет жизни потратил шевалье Лагардер, чтобы отомстить за смерть своего друга герцога Неверского. Шестнадцать лет, чтобы подобраться к убийце, ставшему финансовым королем Парижа, на чьей руке он своей острой шпагой начертал вечное клеймо позора. Шестнадцать лет, чтобы добиться торжества справедливости, сохранить честь и найти любовь. История отчаянного дуэлянта и пылкого любовника, которую донесла до нас людская молва и придворные сплетни.

    Снималось в: Германия, Франция, Италия
    Киностудия: F1 Films Production, DA Films, Gemini Film, Prima, CNC, Canal+ fr, Cofimage 8
    Время просмотра: 02: 08: 17
    Перевод текста: Профессиональный (многоголосый, закадровый)ТВЦ
    Файл
    Кодек для видео: XviD
    Качество фильма: HDRip с|BDRip 1080p|
    Информация о видео: 720x304, 24.000 fps, 1431 kbps
    Информация о звуке: AC3, 192 kbps, 2 ch, 48 kHz
    MI
    Общее
    Полное имя : K.Bou.1997.HDRip.avi
    Формат : AVI
    Формат/Информация : Audio Video Interleave
    Размер файла : 1, 46 Гбайт
    Продолжительность : 2 ч. 8 м.
    Общий поток : 1632 Кбит/сек
    Программа кодирования : VirtualDubMod 1.5.10.3 | www.virtualdub-fr.org || (build 2550/release)
    Библиотека кодирования : VirtualDubMod build 2550/release
    Видео
    Идентификатор : 0
    Формат : MPEG-4 Visual
    Профиль формата : Advanced Simple@L5
    Параметр BVOP формата : 1
    Параметр QPel формата : Нет
    Параметр GMC формата : Без точки перехода
    Параметр матрицы формата : Выборочная
    Идентификатор кодека : XVID
    Идентификатор кодека/Подсказка : XviD
    Продолжительность : 2 ч. 8 м.
    Битрейт : 1431 Кбит/сек
    Ширина : 720 пикс.
    Высота : 304 пикс.
    Соотношение сторон : 2, 35: 1
    Частота кадров : 24, 000 кадр/сек
    Цветовое пространство : YUV
    Подвыборка цветности : 4: 2: 0
    Битовая глубина : 8 бит
    Тип развёртки : Прогрессивная
    Метод сжатия : С потерями
    Бит/(Пиксели*Кадры) : 0.272
    Размер потока : 1, 28 Гбайт (88%)
    Библиотека кодирования : XviD 73
    Аудио
    Идентификатор : 1
    Формат : AC-3
    Формат/Информация : Audio Coding 3
    Расширение режима : CM (complete main)
    Идентификатор кодека : 2000
    Продолжительность : 2 ч. 8 м.
    Вид битрейта : Постоянный
    Битрейт : 192 Кбит/сек
    Канал(ы) : 2 канала(ов)
    Расположение каналов : Front: L R
    Частота : 48, 0 КГц
    Битовая глубина : 16 бит
    Метод сжатия : С потерями
    Размер потока : 176 Мбайт (12%)
    Выравнивание : Разделение по промежуткам
    Продолжительность промежутка : 42 мс. (1, 00 видеокадр)
    Время предзагрузки промежутка : 500 ms
    Скриншоты

    Релиз подготовил: Leon-masl
    Залил: leon-masl

    Онлайн видео Горбун


    Размер скачиваемого торрента: 1.46 GB (1570205696 Bytes)

    Горбун/Le Bossu (1997) HDRip от Leon-masl
    загрузка...
    Рейтинг →
     (голосов: 1, оценка 4/5, голосовать можно 1 раз )

    Другие торренты по теме:

  • Горбун из Нотр Дама / The Hunchback of Notre Dame (1996) BDRemux 1080p от HDTracker торрент скачать бесплатно
  • Горбун из Нотр Дама I - II / The Hunchback of Notre Dame I - II (1996) (2002) BDRip 1080p от FREEISLAND торрент скачать бесплатно
  • Горбун из Нотр Дама 2 / The Hunchback of Notre Dame II (2002) BDRip от HQCLUB торрент скачать бесплатно
  • К бою / Горбун / Le Bossu (1997) DVDRip-AVC торрент скачать бесплатно
  • Горбун / Le bossu (1959) BDRip 1080p скачать через торрент бесплатно
  • Банда Горбуна / La banda del gobbo (1978) DVDRip | A скачать через торрент бесплатно
  • Горбун / Le Bossu (1997) BDRip 1080p скачать торрент бесплатно
  • Горбун / Le Bossu (1997) BDRip AVC скачать торрент бесплатно


    • Комментарии (0):

      Информация

      Информация

        Посетители, находящиеся в группе Гости, не могут оставлять комментарии в данной новости.

        ↓ Меню



        ↓ Опрос

        А Вы добавили сайт в закладки?
        Да
        Не


        Top 10 за неделю (Фильмы)