.
Авторизация | Регистрация
» » Посторонний / The Intruders (2015) DVD9 | Лицензия скачать торрент бесплатно




    Посторонний / The Intruders (2015) DVD9 | Лицензия скачать торрент бесплатно

    Опубликовал: Админ | Дата: 30-06-2015, 05:15 | Просмотров: 132



    Детально о кино
    Русское название: Посторонний
    Русское название в мировом прокате: The Intruders
    Создали в: 2015
    Категория жанра: триллер
    Главный режиссер: Адам Мэсси

    Актеры
    Миранда Косгров, Донал Лог, Остин Роберт Батлер, Том Сайзмор, Дженесса Грант, Майкл Лакетт, Маккензи Болл, Клер Каларко

    Сюжет фильма

    После трагической потери матери, девочка-подросток, пытается раскрыть темные тайны ее нового дома, несмотря на то, что отец не верит ей…

    Снималось в: Канада
    Киностудия: Darius Films Inc.
    Время просмотра: 89 мин./01: 29
    Перевод текста: профессиональный (многоголосый, закадровый)
    Файл
    Кодек для видео: MPEG2
    Качество фильма: DVD9
    Информация о видео: PAL 16: 9 (720x576@1024x576) VBR 4812 Kbps, 25.000 fps
    Информация о звуке 1: Dolby AC3, 6 ch, 48.0 KHz, 448 Кbps (английский)
    Информация о звуке 2: Dolby AC3, 6 ch, 48.0 KHz, 384 Кbps (русский)
    Информация о звуке 3: Dolby AC3, 6 ch, 48.0 KHz, 384 Кbps (польский)
    Информация о звуке 4: Dolby AC3, 6 ch, 48.0 KHz, 384 Кbps (турецкий)
    Информация о звуке 5: Dolby AC3, 6 ch, 48.0 KHz, 384 Кbps (чешский)
    Информация о звуке 6: Dolby AC3, 2 ch, 48.0 KHz, 192 Kbps (венгерский)
    Субтитры: русские, украинские, английские, болгарские, чешские, греческие, эстонские, хинди, хорватские, венгерские, исландские, иврит, польские, португальские, румынские, словацкие, словенские, сербские, турецкие
    MediaInfo
    Общее
    Полное имя : D: Посторонний 2015VIDEO_TSVTS_02_1.VOB
    Формат : MPEG-PS
    Размер файла : 1024 Мбайт
    Продолжительность : 20 м.
    Режим общего битрейта : Переменный
    Общий поток : 7130 Кбит/сек
    Видео
    Идентификатор : 224 (0xE0)
    Формат : MPEG Video
    Версия формата : Version 2
    Профиль формата : Main@Main
    Параметр BVOP формата : Да
    Параметр матрицы формата : Выборочная
    Параметр GOP формата : Variable
    Продолжительность : 20 м.
    Вид битрейта : Переменный
    Битрейт : 4812 Кбит/сек
    Ширина : 720 пикселей
    Высота : 576 пикселей
    Соотношение сторон : 16: 9
    Частота кадров : 25, 000 кадров/сек
    Стандарт вещания : PAL
    Цветовое пространство : YUV
    Субдискретизация насыщенности : 4: 2: 0
    Битовая глубина : 8 бит
    Тип развёртки : Прогрессивная
    Метод сжатия : С потерями
    Бит/(Пиксели*Кадры) : 0.464
    Временной код первого кадра : 01: 00: 00: 00
    Оригинал временного кода : Group of pictures t_head
    Размер потока : 691 Мбайт (67%)
    Основные цвета : BT.601 NTSC
    Характеристики трансфера : BT.601
    Коэффициенты матрицы : BT.601
    Аудио #1
    Идентификатор : 189 (0xBD)-128 (0x80)
    Формат : AC-3
    Формат/Информация : Audio Coding 3
    Расширение режима : CM (complete main)
    Параметр Endianness формата : Big
    Режим смешивания : DVD-Video
    Продолжительность : 20 м.
    Вид битрейта : Постоянный
    Битрейт : 448 Кбит/сек
    Каналы : 6 каналов
    Расположение каналов : Front: L C R, Side: L R, LFE
    Частота : 48, 0 КГц
    Метод сжатия : С потерями
    Размер потока : 64, 3 Мбайт (6%)
    Аудио #2
    Идентификатор : 189 (0xBD)-129 (0x81)
    Формат : AC-3
    Формат/Информация : Audio Coding 3
    Расширение режима : CM (complete main)
    Параметр Endianness формата : Big
    Режим смешивания : DVD-Video
    Продолжительность : 20 м.
    Вид битрейта : Постоянный
    Битрейт : 384 Кбит/сек
    Каналы : 6 каналов
    Расположение каналов : Front: L C R, Side: L R, LFE
    Частота : 48, 0 КГц
    Метод сжатия : С потерями
    Размер потока : 55, 1 Мбайт (5%)
    Аудио #3
    Идентификатор : 189 (0xBD)-130 (0x82)
    Формат : AC-3
    Формат/Информация : Audio Coding 3
    Профиль формата : Dolby Digital
    Расширение режима : CM (complete main)
    Параметр Endianness формата : Big
    Режим смешивания : DVD-Video
    Продолжительность : 20 м.
    Вид битрейта : Постоянный
    Битрейт : 192 Кбит/сек
    Каналы : 2 канала
    Расположение каналов : Front: L R
    Частота : 48, 0 КГц
    Метод сжатия : С потерями
    Размер потока : 27, 6 Мбайт (3%)
    Аудио #4
    Идентификатор : 189 (0xBD)-131 (0x83)
    Формат : AC-3
    Формат/Информация : Audio Coding 3
    Расширение режима : CM (complete main)
    Параметр Endianness формата : Big
    Режим смешивания : DVD-Video
    Продолжительность : 20 м.
    Вид битрейта : Постоянный
    Битрейт : 384 Кбит/сек
    Каналы : 6 каналов
    Расположение каналов : Front: L C R, Side: L R, LFE
    Частота : 48, 0 КГц
    Метод сжатия : С потерями
    Размер потока : 55, 1 Мбайт (5%)
    Аудио #5
    Идентификатор : 189 (0xBD)-132 (0x84)
    Формат : AC-3
    Формат/Информация : Audio Coding 3
    Расширение режима : CM (complete main)
    Параметр Endianness формата : Big
    Режим смешивания : DVD-Video
    Продолжительность : 20 м.
    Вид битрейта : Постоянный
    Битрейт : 384 Кбит/сек
    Каналы : 6 каналов
    Расположение каналов : Front: L C R, Side: L R, LFE
    Частота : 48, 0 КГц
    Метод сжатия : С потерями
    Размер потока : 55, 1 Мбайт (5%)
    Аудио #6
    Идентификатор : 189 (0xBD)-133 (0x85)
    Формат : AC-3
    Формат/Информация : Audio Coding 3
    Расширение режима : CM (complete main)
    Параметр Endianness формата : Big
    Режим смешивания : DVD-Video
    Продолжительность : 20 м.
    Вид битрейта : Постоянный
    Битрейт : 384 Кбит/сек
    Каналы : 6 каналов
    Расположение каналов : Front: L C R, Side: L R, LFE
    Частота : 48, 0 КГц
    Метод сжатия : С потерями
    Размер потока : 55, 1 Мбайт (5%)
    Меню
    Скриншоты


    Залил: carisha

    Онлайн видео Посторонний


    Размер скачиваемого торрента: 5.40 GB (5799821312 Bytes)

    Посторонний/The Intruders (2015) DVD9 | Лицензия
    загрузка...
    Рейтинг →
     (голосов: 1, оценка 3/5, голосовать можно 1 раз )

    Другие торренты по теме:

  • Посторонним вход разрешен скачать через торрент бесплатно
  • Посторонний / The Intruders (2015) WEB-DLRip | L1скачать торрент бесплатно
  • Посторонний / The Intruders (2015) WEB-DL 720p | P скачать торрент бесплатно
  • Посторонний / The Intruders (2015) DVDRip-AVC от ExKinoRay | Лицензия скачать торрент бесплатно
  • Посторонний / The Intruders (2015) DVDRip от Fox 2015 | КПК | Лицензия скачать торрент бесплатно
  • Альбер Камю - Падение. Посторонний. Чума / Классика / 2006 / Вячеслав Задворных / MP3 скачать торрент бесплатно


    • Комментарии (0):

      Информация

      Информация

        Посетители, находящиеся в группе Гости, не могут оставлять комментарии в данной новости.

        ↓ Меню



        ↓ Опрос

        А Вы добавили сайт в закладки?
        Да
        Не


        Top 10 за неделю (Фильмы)