.
Авторизация | Регистрация
» » Список Шиндлера / Schindlers List (1993) BDRip-AVC от Alexandrov1994 | D, P, A скачать торрент бесплатно




    Список Шиндлера / Schindlers List (1993) BDRip-AVC от Alexandrov1994 | D, P, A скачать торрент бесплатно

    Опубликовал: Админ | Дата: 1-07-2015, 11:29 | Просмотров: 75



    Детально о кино
    Русское название: Список Шиндлера
    Русское название в мировом прокате: Schindler;s List
    Создали в: 1993
    Категория жанра: Военный, Биография, Боевик, Мелодрама, История
    Главный режиссер: Стивен Спилберг

    Актеры
    Лиам Нисон(Oskar Schindler), Бен Кингсли(Itzhak Stern), Рэйф Файнс(Amon Goeth), Кэролайн Гудолл(Emilie Schindler), Эмбет Дэвидц(Helen Hirsch), Джонотан Сэгэлл(Poldek Pfefferberg), Мири Фабиан(Chaja Dresner), Анна Муха(Danka Dresner), Павел Делонг(Dolek Horowitz), Оливия Дабровска(Red Genia) и другие...

    Сюжет фильма

    Фильм основан на реальных событиях
    События фильма начинаются в сентябре 1939 года в Кракове. Еврейское сообщество все сильнее ощущает возрастающее со стороны нацистов, свободы остается все меньше и меньше, даже появляться в людных местах становится опасным. Оскар Шиндлер - сравнительно бедный немец, который приехал в Краков, чтобы заработать на меняющейся политической обстановке и разбогатеть. Его манят легкие деньги. Шиндлер остается верен тем, кто больше платит. Он спокойно обсуждает свой бизнес с нацисткими чиновниками. Тем временем еврейское население Польши сгоняют в крупные города, в том числе и в Краков. Шиндлер становится владельцем жестяного завода и нанимает на работу евреев - дешевую рабочую силу. Кроме скидки за труд, евреи также дают преимущество благоприятного финансирования, так как им запрещено вести свой бизнес. Хотя сначала Шиндлер неохотно работает с евреями, его мнение меняется после открытия еврейского гетто в Кракове. Вскоре у Шиндлера появляется своя рабочая сила, приносящий доход завод и спонсор Штерн, занимающийся смежным бизнесом и обеспечивающий защиту евреям, которым благоволит. Этот бизнес продолжает приносить доход до тех пор, пока нацисткие войска не начинают ликвидировать гетто. Местных еврейских жителей сгоняют, а затем либо отправляют в концентрационные лагеря, либо казнят. Амон Гоет, комендант нового трудового лагеря, куда отправили выживших из гетто, - фанатичный солдат-нацист, который, кажется, получает удовольствие, пытая своих еврейских подопечных. Шиндлер приезжает в этот трудовой лагерь в надежде подкупить чиновников и забрать некоторых евреев с собой, чтобы они снова на него работали. Ему удается заручиться доверием Гоета и снова получить своих рабочих. Узнав о ненормальной жестокости Гоета, Шиндлер начинает жалеть евреев. В результате Шиндлер подвергает себя риску, чтобы спасти рабочих и не допустить их отправки в концентрационные лагеря. Напряжение фильма нарастает, когда фашисты начинают предпринимать против еврейских жителей одну операцию за другой, угрожая и Шиндлеру.
    По одноименной книге Томаса Кеннели

    Снималось в: США
    Киностудия: Universal Pictures, Amblin Entertaiment, Industrial Light Magic
    Время просмотра: 3: 15: 12
    Перевод текста: Профессиональный, дублированный(EastWest) + Профессиональный, многоголосый(Киномания, ICTV) + Профессиональный, двухголосый(Iнтер) + Авторский, одноголосый(В.Горчаков, Ю.Сербин(ранний/1995г.), Ю.Сербин(поздний/2012г.), И.Александров, С.Визгунов, Ю.Живов) + English
    Файл
    Кодек для видео: mkv
    Качество фильма: BDRip-AVC
    Информация о видео: 704x384(1, 85: 1) ; 1296Kbps ; 23, 976fps
    Информация о звуке:
    1. AC3, 5.1ch, 384Kbps, 48.0KHz/DUB/RUS/EastWest;
    2. AC3, 5.1ch, 448Kbps, 48.0KHz/MVO/RUS/Киномания;
    3. AC3, 2ch, 192Kbps, 48.0KHz/MVO/UKR/ICTV;
    4. AC3, 2ch, 192Kbps, 48.0KHz/DVO/UKR/Iнтер;
    5. AC3, 2ch, 192Kbps, 48.0KHz/AVO/RUS/Василий Горчаков;
    6. AC3, 5.1ch, 448Kbps, 48.0KHz/AVO/RUS/Юрий Сербин(ранний/1995г.);
    7. AC3, 5.1ch, 448Kbps, 48.0KHz/AVO/RUS/Юрий Сербин(поздний/2012г.);
    8. AC3, 5.1ch, 448Kbps, 48.0KHz/AVO/RUS/Илья Александров;
    9. AC3, 2ch, 192Kbps, 48.0KHz/AVO/RUS/Сергей Визгунов;
    10. AC3, 5.1ch, 448Kbps, 48.0KHz/AVO/RUS/Юрий Живов;
    11. AC3, 5.1ch, 384Kbps, 48.0KHz/Original/English
    За наложение и сборку чистого голоса (перевода и озвучки Ильи Александрова) на центр английской дорожки 5.1 спасибо Данису Нурмухаметову.
    Субтитры: Русские, Английские
    Семпл
    MediaInfo
    Уникальный идентификатор : 232424242353650583092692192895479674909 (0xAEDB47E37E9A0C4F958C8DCABB6D781D)
    Полное имя : C: UsersemachinesVideosТо, что я раздаюSchindler;s.List.1993.BDRip.DUB.2MVO.DVO.5AVO+SUBS(ruseng).mkv
    Формат : Matroska
    Версия формата : Version 4/Version 2
    Размер файла : 7, 06 Гбайт
    Продолжительность : 3 ч. 15 м.
    Общий поток : 5175 Кбит/сек
    Дата кодирования : UTC 2015-06-27 21: 56: 38
    Программа кодирования : mkvmerge v7.8.0 (;River Man;) 32bit built on Mar 27 2015 16: 18: 02
    Библиотека кодирования : libebml v1.3.1 + libmatroska v1.4.2
    DURATION : 03: 15: 06.560000000
    NUMBER_OF_FRAMES : 365830
    NUMBER_OF_BYTES : 561914880
    _STATISTICS_WRITING_APP : mkvmerge v7.8.0 (;River Man;) 32bit built on Mar 27 2015 16: 18: 02
    _STATISTICS_WRITING_DATE_UTC : 2015-06-27 21: 56: 38
    _STATISTICS_TAGS : BPS DURATION NUMBER_OF_FRAMES NUMBER_OF_BYTES
    Видео
    Идентификатор : 1
    Формат : MPEG-4 Visual
    Профиль формата : Advanced Simple@L5
    Параметр BVOP формата : 1
    Параметр QPel формата : Нет
    Параметр GMC формата : Без точки перехода
    Параметр матрицы формата : Выборочная
    Идентификатор кодека : V_MS/VFW/FOURCC/XVID
    Идентификатор кодека/Подсказка : XviD
    Продолжительность : 3 ч. 15 м.
    Битрейт : 1296 Кбит/сек
    Ширина : 704 пикселя
    Высота : 384 пикселя
    Соотношение сторон : 1, 85: 1
    Режим частоты кадров : Постоянный
    Частота кадров : 23, 976 кадра/сек
    Цветовое пространство : YUV
    Субдискретизация насыщенности : 4: 2: 0
    Битовая глубина : 8 бит
    Тип развёртки : Прогрессивная
    Метод сжатия : С потерями
    Бит/(Пиксели*Кадры) : 0.200
    Размер потока : 1, 77 Гбайт (25%)
    Библиотека кодирования : XviD 73
    Default : Да
    Forced : Нет
    Аудио #1
    Идентификатор : 2
    Формат : AC-3
    Формат/Информация : Audio Coding 3
    Расширение режима : CM (complete main)
    Параметр Endianness формата : Big
    Идентификатор кодека : A_AC3
    Продолжительность : 3 ч. 15 м.
    Вид битрейта : Постоянный
    Битрейт : 384 Кбит/сек
    Каналы : 6 каналов
    Расположение каналов : Front: L C R, Side: L R, LFE
    Частота : 48, 0 КГц
    Битовая глубина : 16 бит
    Метод сжатия : С потерями
    Размер потока : 536 Мбайт (7%)
    Заголовок : Профессиональный, дублированный/EastWest
    Язык : Russian
    Default : Да
    Forced : Нет
    Аудио #2
    Идентификатор : 3
    Формат : AC-3
    Формат/Информация : Audio Coding 3
    Расширение режима : CM (complete main)
    Параметр Endianness формата : Big
    Идентификатор кодека : A_AC3
    Продолжительность : 3 ч. 15 м.
    Вид битрейта : Постоянный
    Битрейт : 448 Кбит/сек
    Каналы : 6 каналов
    Расположение каналов : Front: L C R, Side: L R, LFE
    Частота : 48, 0 КГц
    Битовая глубина : 16 бит
    Метод сжатия : С потерями
    Размер потока : 626 Мбайт (9%)
    Заголовок : Профессиональный, многоголосый/Киномания
    Язык : Russian
    Default : Нет
    Forced : Нет
    Аудио #3
    Идентификатор : 4
    Формат : AC-3
    Формат/Информация : Audio Coding 3
    Расширение режима : CM (complete main)
    Параметр Endianness формата : Big
    Идентификатор кодека : A_AC3
    Продолжительность : 3 ч. 15 м.
    Вид битрейта : Постоянный
    Битрейт : 192 Кбит/сек
    Каналы : 2 канала
    Расположение каналов : Front: L R
    Частота : 48, 0 КГц
    Битовая глубина : 16 бит
    Метод сжатия : С потерями
    Размер потока : 268 Мбайт (4%)
    Заголовок : Професииональный, многоголосый/ICTV
    Язык : Ukrainian
    Default : Нет
    Forced : Нет
    Аудио #4
    Идентификатор : 5
    Формат : AC-3
    Формат/Информация : Audio Coding 3
    Расширение режима : CM (complete main)
    Параметр Endianness формата : Big
    Идентификатор кодека : A_AC3
    Продолжительность : 3 ч. 15 м.
    Вид битрейта : Постоянный
    Битрейт : 192 Кбит/сек
    Каналы : 2 канала
    Расположение каналов : Front: L R
    Частота : 48, 0 КГц
    Битовая глубина : 16 бит
    Метод сжатия : С потерями
    Размер потока : 268 Мбайт (4%)
    Заголовок : Профессиональный, двухголосый/Iнтер
    Язык : Ukrainian
    Default : Нет
    Forced : Нет
    Аудио #5
    Идентификатор : 6
    Формат : AC-3
    Формат/Информация : Audio Coding 3
    Расширение режима : CM (complete main)
    Параметр Endianness формата : Big
    Идентификатор кодека : A_AC3
    Продолжительность : 3 ч. 15 м.
    Вид битрейта : Постоянный
    Битрейт : 192 Кбит/сек
    Каналы : 2 канала
    Расположение каналов : Front: L R
    Частота : 48, 0 КГц
    Битовая глубина : 16 бит
    Метод сжатия : С потерями
    Размер потока : 268 Мбайт (4%)
    Заголовок : Авторский, одноголосый/Василий Горчаков
    Язык : Russian
    Default : Нет
    Forced : Нет
    Аудио #6
    Идентификатор : 7
    Формат : AC-3
    Формат/Информация : Audio Coding 3
    Расширение режима : CM (complete main)
    Параметр Endianness формата : Big
    Идентификатор кодека : A_AC3
    Продолжительность : 3 ч. 15 м.
    Вид битрейта : Постоянный
    Битрейт : 448 Кбит/сек
    Каналы : 6 каналов
    Расположение каналов : Front: L C R, Side: L R, LFE
    Частота : 48, 0 КГц
    Битовая глубина : 16 бит
    Метод сжатия : С потерями
    Размер потока : 626 Мбайт (9%)
    Заголовок : Авторский, одноголосый/Юрий Сербин(ранний/1995г.)
    Язык : Russian
    Default : Нет
    Forced : Нет
    Аудио #7
    Идентификатор : 8
    Формат : AC-3
    Формат/Информация : Audio Coding 3
    Расширение режима : CM (complete main)
    Параметр Endianness формата : Big
    Идентификатор кодека : A_AC3
    Продолжительность : 3 ч. 15 м.
    Вид битрейта : Постоянный
    Битрейт : 448 Кбит/сек
    Каналы : 6 каналов
    Расположение каналов : Front: L C R, Side: L R, LFE
    Частота : 48, 0 КГц
    Битовая глубина : 16 бит
    Метод сжатия : С потерями
    Размер потока : 626 Мбайт (9%)
    Заголовок : Авторский, одноголосый/Юрий Сербин(поздний/2012г.)
    Язык : Russian
    Default : Нет
    Forced : Нет
    Аудио #8
    Идентификатор : 9
    Формат : AC-3
    Формат/Информация : Audio Coding 3
    Расширение режима : CM (complete main)
    Параметр Endianness формата : Big
    Идентификатор кодека : A_AC3
    Продолжительность : 3 ч. 15 м.
    Вид битрейта : Постоянный
    Битрейт : 448 Кбит/сек
    Каналы : 6 каналов
    Расположение каналов : Front: L C R, Side: L R, LFE
    Частота : 48, 0 КГц
    Битовая глубина : 16 бит
    Метод сжатия : С потерями
    Размер потока : 626 Мбайт (9%)
    Заголовок : Авторский, одноголосый/Илья Александров
    Язык : Russian
    Default : Нет
    Forced : Нет
    Аудио #9
    Идентификатор : 10
    Формат : AC-3
    Формат/Информация : Audio Coding 3
    Расширение режима : CM (complete main)
    Параметр Endianness формата : Big
    Идентификатор кодека : A_AC3
    Продолжительность : 3 ч. 15 м.
    Вид битрейта : Постоянный
    Битрейт : 192 Кбит/сек
    Каналы : 2 канала
    Расположение каналов : Front: L R
    Частота : 48, 0 КГц
    Битовая глубина : 16 бит
    Метод сжатия : С потерями
    Размер потока : 268 Мбайт (4%)
    Заголовок : Авторский, одноголосый/Сергей Визгунов
    Язык : Russian
    Default : Нет
    Forced : Нет
    Аудио #10
    Идентификатор : 11
    Формат : AC-3
    Формат/Информация : Audio Coding 3
    Расширение режима : CM (complete main)
    Параметр Endianness формата : Big
    Идентификатор кодека : A_AC3
    Продолжительность : 3 ч. 15 м.
    Вид битрейта : Постоянный
    Битрейт : 448 Кбит/сек
    Каналы : 6 каналов
    Расположение каналов : Front: L C R, Side: L R, LFE
    Частота : 48, 0 КГц
    Битовая глубина : 16 бит
    Метод сжатия : С потерями
    Размер потока : 626 Мбайт (9%)
    Заголовок : Авторский, одноголосый/Юрий Живов
    Язык : Russian
    Default : Нет
    Forced : Нет
    Аудио #11
    Идентификатор : 12
    Формат : AC-3
    Формат/Информация : Audio Coding 3
    Расширение режима : CM (complete main)
    Параметр Endianness формата : Big
    Идентификатор кодека : A_AC3
    Продолжительность : 3 ч. 15 м.
    Вид битрейта : Постоянный
    Битрейт : 384 Кбит/сек
    Каналы : 6 каналов
    Расположение каналов : Front: L C R, Side: L R, LFE
    Частота : 48, 0 КГц
    Битовая глубина : 16 бит
    Метод сжатия : С потерями
    Размер потока : 536 Мбайт (7%)
    Заголовок : Original
    Язык : English
    Default : Нет
    Forced : Нет
    Текст #1
    Идентификатор : 13
    Формат : UTF-8
    Идентификатор кодека : S_TEXT/UTF8
    Идентификатор кодека/Информация : UTF-8 Plain Text
    Заголовок : Русские
    Язык : Russian
    Default : Да
    Forced : Нет
    Текст #2
    Идентификатор : 14
    Формат : UTF-8
    Идентификатор кодека : S_TEXT/UTF8
    Идентификатор кодека/Информация : UTF-8 Plain Text
    Заголовок : Английские
    Язык : English
    Default : Нет
    Forced : Нет
    Скриншоты

    Релиз подготовил: Alexandrov1994

    Онлайн видео Список Шиндлера


    Размер скачиваемого торрента: 7.06 GB (7577392383 Bytes)

    Список Шиндлера/Schindlers List (1993) BDRip-AVC от Alexandrov1994 | D, P, A
    загрузка...
    Рейтинг →
     (голосов: 1, оценка 4/5, голосовать можно 1 раз )

    Другие торренты по теме:

  • OST - Список Шиндлера / Schindlers List - Soundtrack (1993) MP3 торрент скачать бесплатно
  • Список Шиндлера / Schindlers List (1993) BDRip 720p от R.G. 25 Кадр торрент скачать бесплатно
  • Список Шиндлера / Schindlers List (1993) НDRip от Scarabey | D торрент скачать бесплатно
  • Список Шиндлера / Schindlers list (1993) BDRip 720p by msltel | D, P, A скачать через торрент бесплатно
  • Список Шиндлера / Schindlers List (1993) BDRip от MediaClub | КПК скачать через торрент бесплатно


    • Комментарии (0):

      Информация

      Информация

        Посетители, находящиеся в группе Гости, не могут оставлять комментарии в данной новости.

        ↓ Меню



        ↓ Опрос

        А Вы добавили сайт в закладки?
        Да
        Не


        Top 10 за неделю (Фильмы)