.
Авторизация | Регистрация
Хочешь лучшие торренты? Добавь свой email!
Добавить
» » Меч дракона / Tian jiang xiong shi (2015) DVD-9 | A торрент скачать бесплатно




    Меч дракона / Tian jiang xiong shi (2015) DVD-9 | A торрент скачать бесплатно

    Опубликовал: Админ | Дата: 1-07-2015, 11:33 | Просмотров: 114



    Детально о кино
    Русское название: Меч дракона
    Русское название в мировом прокате: Tian jiang xiong shi/Dragon Blade
    Создали в: 2015
    Категория жанра: Боевик, драма, приключения
    Главный режиссер: Дэниэл Ли

    Актеры
    Джеки Чан, Джон Кьюсак, Эдриан Броуди, Шарни Винсон, Линь Пэн, Бенни Уркидез, Ши Вон Чхве, Темур Мамисашвили, Томер Оз, Кевин Ли, Лори, Пол Филип Кларк, Филипп Жоли, Ваннесс Ву, Джоэль Адриан, Макс Хуан, Рэйден Интегра, Мюррей Клайв Уокер, Вандер МакЛеод, Фатих Угурлу

    Сюжет фильма
    Действие фильма разворачивается в Древнем Китае во времена правления династии Хань. Римский полководец Луция с легионом своих солдат оказывается на территории Китая. В это же время командир отряда охраны Западного региона Хо Ань в результате предательства своих врагов становится рабом. И этим двум воинам было суждено встретиться в Западной пустыне, где развернётся эпическое сражение. Однако биться они будут не друг против друга, как можно было бы подумать, а против алчного императора Тиберия за суверенитет Китая.

    Время просмотра: 02: 07: 01
    Перевод текста: Авторский (Дольский)
    Файл
    Кодек для видео: MPEG-2
    Качество фильма: DVD-9
    Информация о видео: MPEG2, NTSC 16: 9 (720x480@853x480) VBR, 23, 976 кадра/сек
    Информация о звуке: Русский/Китайский DD 5.1 (384 Kbps)
    Меню
    DVDInfo
    Title:
    Size: 7.58 Gb ( 7 952 728 KBytes ) - DVD-9
    Enabled regions: 1, 2, 3, 4, 5, 6, 7, 8
    VTS_01 :
    Play Length: 02: 07: 01
    Video: NTSC 16: 9 (720x480) VBR, Auto PanScan
    Audio:
    Russian (Dolby AC3, 6 ch)
    Chinese (Dolby AC3, 6 ch)
    Menu Video:
    NTSC 4: 3 (704x480) VBR
    Menu English Language Unit :
    Root Menu
    MediaInfo
    Общее
    Полное имя : D: ААА2МЕЧ ДРАКОНАVIDEO_TSVTS_01_1.VOB
    Формат : MPEG-PS
    Размер файла : 1000 Мбайт
    Продолжительность : 16 м.
    Режим общего битрейта : Переменный
    Общий поток : 8290 Кбит/сек
    Видео
    Идентификатор : 224 (0xE0)
    Формат : MPEG Video
    Версия формата : Version 2
    Профиль формата : Main@Main
    Параметр BVOP формата : Да
    Параметр матрицы формата : По умолчанию
    Параметр GOP формата : M=3, N=12
    Продолжительность : 16 м.
    Вид битрейта : Переменный
    Битрейт : 7357 Кбит/сек
    Максимальный битрейт : 8312 Кбит/сек
    Ширина : 720 пикселей
    Высота : 480 пикселей
    Соотношение сторон : 16: 9
    Частота кадров : 23, 976 кадра/сек
    Стандарт вещания : NTSC
    Цветовое пространство : YUV
    Субдискретизация насыщенности : 4: 2: 0
    Битовая глубина : 8 бит
    Тип развёртки : Прогрессивная
    Порядок развёртки : 2: 3 Pulldown
    Метод сжатия : С потерями
    Бит/(Пиксели*Кадры) : 0.888
    TimeCode_FirstFrame : 00: 00: 00;00
    TimeCode_Source : Group of pictures t_head
    Размер потока : 887 Мбайт (89%)
    Аудио #1
    Идентификатор : 189 (0xBD)-128 (0x80)
    Формат : AC-3
    Формат/Информация : Audio Coding 3
    Расширение режима : CM (complete main)
    Параметр Endianness формата : Big
    Режим смешивания : DVD-Video
    Продолжительность : 16 м.
    Вид битрейта : Постоянный
    Битрейт : 384 Кбит/сек
    Каналы : 6 каналов
    Расположение каналов : Front: L C R, Side: L R, LFE
    Частота : 48, 0 КГц
    Битовая глубина : 16 бит
    Метод сжатия : С потерями
    Размер потока : 46, 3 Мбайт (5%)
    Аудио #2
    Идентификатор : 189 (0xBD)-129 (0x81)
    Формат : AC-3
    Формат/Информация : Audio Coding 3
    Расширение режима : CM (complete main)
    Параметр Endianness формата : Big
    Режим смешивания : DVD-Video
    Продолжительность : 16 м.
    Вид битрейта : Постоянный
    Битрейт : 384 Кбит/сек
    Каналы : 6 каналов
    Расположение каналов : Front: L C R, Side: L R, LFE
    Частота : 48, 0 КГц
    Битовая глубина : 16 бит
    Метод сжатия : С потерями
    Размер потока : 46, 3 Мбайт (5%)
    Меню


    Скриншоты

    Релиз:
    Залил: YArl

    Онлайн видео Меч дракона


    Размер скачиваемого торрента: 7.58 GB (8143593472 Bytes)

    Меч дракона/Tian jiang xiong shi (2015) DVD-9 | A
    загрузка...
    Рейтинг →
     (голосов: 1, оценка 3/5, голосовать можно 1 раз )

    Другие торренты по теме:



      Комментарии (0):

      Информация

      Информация

        Посетители, находящиеся в группе Гости, не могут оставлять комментарии в данной новости.

        ↓ Меню



        ↓ Опрос

        А Вы добавили сайт в закладки?
        Да
        Не


        Top 10 за месяц (Фильмы)