.
Авторизация | Регистрация
» » Безумный Макс: Дорога ярости / Mad Max: Fury Road (2015) WEB-DLRip-AVC от Scarabey | Чистый звук, А скачать торрент бесплатно




    Безумный Макс: Дорога ярости / Mad Max: Fury Road (2015) WEB-DLRip-AVC от Scarabey | Чистый звук, А скачать торрент бесплатно

    Опубликовал: Админ | Дата: 1-07-2015, 11:33 | Просмотров: 73



    Создали в: 2015
    Снималось в: Австралия, США
    Категория жанра: боевик, фантастика, приключения
    Время просмотра: 02: 00: 21
    Перевод текста: Профессиональный (полное дублирование) Чистый звук + Авторский (одноголосый, закадровый) А. Матвеев
    Субтитры подготовлены: нет
    Главный режиссер: Джордж Миллер/George Miller

    Актеры
    Том Харди, Шарлиз Терон, Николас Холт, Хью Кияс-Бёрн, Джош Хелман, Нэйтан Джонс, Зои Кравиц, Роузи Хантингтон-Уайтли, Райли Кио, Эбби Ли

    Описание фильма
    Преследуемый призраками беспокойного прошлого, Макс уверен, что лучший способ выжить — скитаться в одиночестве. Несмотря на это, он присоединяется к бунтарям, бегущим через всю пустыню на боевой фуре, под предводительством военачальника Фуриосы.
    Они пытаются сбежать из Цитадели, страдающей от тирании Несмертного Джо, у которого они забрали кое-что очень ценное. Разъярённый военачальник бросает все свои силы на погоню за мятежниками, ступая на дорогу войны — дорогу ярости.
    Качество фильма видео: WEB-DLRip-AVC
    Тип видео видео: MKV
    Информация о видео: 1024x424 (2.39: 1), 23.976 fps, AVC, ~2457 kbps avg, 0.236 bit/pixel
    Информация о звуке №1: 48 kHz, AC3 Dolby Digital, 2/0 (L, R) ch, ~128.00 kbps avg - дубляж - Присутствует около 4-х минут вставок звука TS
    Информация о звуке №2: 48 kHz, AC3 Dolby Digital, 3/2 (L, C, R, l, r) + LFE ch, ~384 kbps - Матвеев
    Релиз подготовил:
    АНОНСЫ МОИХ РАЗДАЧ!

    МедиаИнфо

    Безумный Макс МатвеевBezumnyj.Maks.D.j.2015_AVC_WEB-DLRip_scarabey.org.mkv
    Format : Matroska
    Format version : Version 2
    File size : 2.39 GiB
    Duration : 2h 0mn
    Overall bit rate : 2 842 Kbps
    Encoded date : UTC 2015-06-25 01: 38: 40
    Writing application : mkvmerge v6.1.0 (;Old Devil;) built on Mar 4 2013 09: 10: 42
    Writing library : libebml v1.3.0 + libmatroska v1.4.0
    Video
    ID : 1
    Format : AVC
    Format/Info : Advanced Video Codec
    Format profile : High@L4.1
    Format settings, CABAC : Yes
    Format settings, ReFrames : 8 frames
    Codec ID : V_MPEG4/ISO/AVC
    Duration : 2h 0mn
    Bit rate : 2 457 Kbps
    Width : 1 024 pixels
    Height : 424 pixels
    Display aspect ratio : 2.35: 1
    Original display aspect ratio : 2.35: 1
    Frame rate mode : Constant
    Frame rate : 23.976 fps
    Color space : YUV
    Chroma subsampling : 4: 2: 0
    Bit depth : 8 bits
    Scan type : Progressive
    Bits/(Pixel*Frame) : 0.236
    Stream size : 2.02 GiB (84%)
    Writing library : x264 core 138 r2356 a1d3d17
    Encoding settings : cabac=1/ref=8/deblock=1: -3: -2/analyse=0x3: 0x113/me=umh/subme=10/psy=1/psy_rd=1.00: 0.05/mixed_ref=1/me_range=32/chroma_me=1/trellis=2/8x8dct=1/cqm=0/deadzone=21, 11/fast_pskip=0/chroma_qp_offset=-3/threads=12/lookahead_threads=2/sliced_threads=0/nr=0/decimate=0/interlaced=0/bluray_compat=0/constrained_intra=0/bframes=8/b_pyramid=2/b_adapt=2/b_bias=0/direct=3/weightb=1/open_gop=0/weightp=2/keyint=240/keyint_min=24/scenecut=40/intra_refresh=0/rc_lookahead=40/rc=2pass/mbtree=1/bitrate=2457/ratetol=1.0/qcomp=0.60/qpmin=0/qpmax=69/qpstep=4/cplxblur=20.0/qblur=0.5/ip_ratio=1.40/aq=1: 1.00
    Default : Yes
    Forced : No
    Audio
    ID : 2
    Format : AC-3
    Format/Info : Audio Coding 3
    Mode extension : CM (complete main)
    Format settings, Endianness : Big
    Codec ID : A_AC3
    Duration : 2h 0mn
    Bit rate mode : Constant
    Bit rate : 384 Kbps
    Channel(s) : 6 channels
    Channel positions : Front: L C R, Side: L R, LFE
    Sampling rate : 48.0 KHz
    Bit depth : 16 bits
    Compression mode : Lossy
    Stream size : 331 MiB (14%)
    Default : Yes
    Forced : No

    Скриншоты


    Онлайн видео Безумный Макс: Дорога ярости


    Размер скачиваемого торрента: 2.50 GB (2681384734 Bytes)

    Безумный Макс: Дорога ярости/Mad Max: Fury Road (2015) WEB-DLRip-AVC от Scarabey | Чистый звук, А
    загрузка...
    Рейтинг →
     (голосов: 1, оценка 3/5, голосовать можно 1 раз )

    Другие торренты по теме:

  • Безумный Макс 3: Под куполом грома / Mad Max Beyond Thunderdome (1985) HDTV 1080p торрент скачать бесплатно
  • Безумный Макс 2: Воин дороги / Mad Max 2 / The Road Warrior (1981) BDRip 1080p | UNRATED торрент скачать бесплатно
  • Безумный Макс: Трилогия / Mad Max (1979-1985) BDRip торрент скачать бесплатно
  • Безумный Макс 3: Под куполом грома / Mad Max Beyond Thunderdome (1985) BDRip от HQCLUB торрент скачать бесплатно
  • Безумный Макс 3: Под куполом грома / Mad Max Beyond Thunderdome (1985) HDRip от Scarabey | D торрент скачать бесплатно
  • Безумный Макс 2: Воин дороги / Mad Max 2: The Road Warrior (1981) HDRip от Scarabey | D торрент скачать бесплатно
  • Безумный Макс / Mad Max (1979) HDRip от Scarabey | D торрент скачать бесплатно
  • Безумный Макс 3: Под куполом грома / Mad Max Beyond Thunderdome (1985) HDRip | КПК торрент скачать бесплатно


    • Комментарии (0):

      Информация

      Информация

        Посетители, находящиеся в группе Гости, не могут оставлять комментарии в данной новости.

        ↓ Меню



        ↓ Опрос

        А Вы добавили сайт в закладки?
        Да
        Не


        Top 10 за неделю (Фильмы)