.
Авторизация | Регистрация
» » Пятьдесят к одному / 50 to 1 (2014) DVD9 | Лицензия скачать торрент бесплатно




    Пятьдесят к одному / 50 to 1 (2014) DVD9 | Лицензия скачать торрент бесплатно

    Опубликовал: Админ | Дата: 1-07-2015, 11:34 | Просмотров: 155



    Детально о кино
    Русское название: Пятьдесят к одному
    Русское название в мировом прокате: 50 to 1
    Создали в: 2014
    Категория жанра: драма
    Главный режиссер: Джим Уилсон

    Актеры
    Скит Ульрих, Кристиан Кэйн, Уильям Дивэйн, Мэдлин Дойч, Тодд Лоу, Дэвид Эткинсон, Кэлвин Борел, Брюс Экелман, Хьюго Перез, Элой Касадос

    Сюжет фильма

    США, 2000-е годы. Талантливый и опытный наездник Калвин Борел на регулярной основе принимает участие в скачках штата Кентукки. Несмотря на его огромный опыт, он так и не нашел себе скакуна, который не только отвечал бы его ожиданиям, но и стал настоящим единомышленником, партнером, другом. Тем временем на одной из провинциальных конюшен рождается красивейшая лошадь чистокровной породы. Она легкая, быстрая, изящная, за что сразу получает кличку Моя птичка. Узнав о ее существовании, Борел немедленно ее выкупает и заявляет свое участие во всемирно известных скачках Кентукки-Дерби. Шансы к победе — всего пятьдесят к одному, но Борел считает, что они не имеют права сдаваться.

    Снималось в: США
    Киностудия: Ten Furlongs
    Время просмотра: 106 мин./01: 46
    Перевод текста: профессиональный (многоголосый, закадровый)
    Файл
    Кодек для видео: MPEG2
    Качество фильма: DVD9
    Информация о видео: PAL 16: 9 (720x576@1024x576) VBR 5224 Kbps, 25.000 fps
    Информация о звуке 1: Dolby AC3, 6 ch, 48.0 KHz, 448 Кbps (английский)
    Информация о звуке 2: Dolby AC3, 6 ch, 48.0 KHz, 384 Кbps (русский)
    Информация о звуке 3: Dolby AC3, 6 ch, 48.0 KHz, 384 Кbps (польский)
    Информация о звуке 4: Dolby AC3, 6 ch, 48.0 KHz, 384 Кbps (турецкий)
    Информация о звуке 5: Dolby AC3, 6 ch, 48.0 KHz, 384 Кbps (чешский)
    Информация о звуке 6: Dolby AC3, 2 ch, 48.0 KHz, 192 Kbps (венгерский)
    Субтитры: русские, английские, арабские, болгарские, хорватские, чешские, эстонские, греческие, иврит, хинди, венгерские, исландские, латышские, литовские, польские, португальские, румынские, сербские, словацкие, словенские, турецкие
    MediaInfo
    Общее
    Полное имя : D: Пятьдесят к одному 2014VIDEO_TSVTS_01_2.VOB
    Формат : MPEG-PS
    Размер файла : 1024 Мбайт
    Продолжительность : 18 м.
    Режим общего битрейта : Переменный
    Общий поток : 7551 Кбит/сек
    Видео
    Идентификатор : 224 (0xE0)
    Формат : MPEG Video
    Версия формата : Version 2
    Профиль формата : Main@Main
    Параметр BVOP формата : Да
    Параметр матрицы формата : Выборочная
    Параметр GOP формата : Variable
    Продолжительность : 18 м.
    Вид битрейта : Переменный
    Битрейт : 5224 Кбит/сек
    Максимальный битрейт : 9800 Кбит/сек
    Ширина : 720 пикселей
    Высота : 576 пикселей
    Соотношение сторон : 16: 9
    Частота кадров : 25, 000 кадров/сек
    Стандарт вещания : PAL
    Цветовое пространство : YUV
    Субдискретизация насыщенности : 4: 2: 0
    Битовая глубина : 8 бит
    Тип развёртки : Прогрессивная
    Порядок развёртки : Верхнее поле первое
    Метод сжатия : С потерями
    Бит/(Пиксели*Кадры) : 0.504
    Временной код первого кадра : 01: 19: 09: 04
    Оригинал временного кода : Group of pictures t_head
    Размер потока : 708 Мбайт (69%)
    Аудио #1
    Идентификатор : 189 (0xBD)-128 (0x80)
    Формат : AC-3
    Формат/Информация : Audio Coding 3
    Расширение режима : CM (complete main)
    Параметр Endianness формата : Big
    Режим смешивания : DVD-Video
    Продолжительность : 18 м.
    Вид битрейта : Постоянный
    Битрейт : 448 Кбит/сек
    Каналы : 6 каналов
    Расположение каналов : Front: L C R, Side: L R, LFE
    Частота : 48, 0 КГц
    Метод сжатия : С потерями
    Задержка видео : -296 мс.
    Размер потока : 60, 7 Мбайт (6%)
    Аудио #2
    Идентификатор : 189 (0xBD)-129 (0x81)
    Формат : AC-3
    Формат/Информация : Audio Coding 3
    Расширение режима : CM (complete main)
    Параметр Endianness формата : Big
    Режим смешивания : DVD-Video
    Продолжительность : 18 м.
    Вид битрейта : Постоянный
    Битрейт : 384 Кбит/сек
    Каналы : 6 каналов
    Расположение каналов : Front: L C R, Side: L R, LFE
    Частота : 48, 0 КГц
    Метод сжатия : С потерями
    Задержка видео : -296 мс.
    Размер потока : 52, 1 Мбайт (5%)
    Аудио #3
    Идентификатор : 189 (0xBD)-130 (0x82)
    Формат : AC-3
    Формат/Информация : Audio Coding 3
    Профиль формата : Dolby Digital
    Расширение режима : CM (complete main)
    Параметр Endianness формата : Big
    Режим смешивания : DVD-Video
    Продолжительность : 18 м.
    Вид битрейта : Постоянный
    Битрейт : 192 Кбит/сек
    Каналы : 2 канала
    Расположение каналов : Front: L R
    Частота : 48, 0 КГц
    Метод сжатия : С потерями
    Задержка видео : -168 мс.
    Размер потока : 26, 0 Мбайт (3%)
    Аудио #4
    Идентификатор : 189 (0xBD)-131 (0x83)
    Формат : AC-3
    Формат/Информация : Audio Coding 3
    Расширение режима : CM (complete main)
    Параметр Endianness формата : Big
    Режим смешивания : DVD-Video
    Продолжительность : 18 м.
    Вид битрейта : Постоянный
    Битрейт : 384 Кбит/сек
    Каналы : 6 каналов
    Расположение каналов : Front: L C R, Side: L R, LFE
    Частота : 48, 0 КГц
    Метод сжатия : С потерями
    Задержка видео : -296 мс.
    Размер потока : 52, 1 Мбайт (5%)
    Аудио #5
    Идентификатор : 189 (0xBD)-132 (0x84)
    Формат : AC-3
    Формат/Информация : Audio Coding 3
    Расширение режима : CM (complete main)
    Параметр Endianness формата : Big
    Режим смешивания : DVD-Video
    Продолжительность : 18 м.
    Вид битрейта : Постоянный
    Битрейт : 384 Кбит/сек
    Каналы : 6 каналов
    Расположение каналов : Front: L C R, Side: L R, LFE
    Частота : 48, 0 КГц
    Метод сжатия : С потерями
    Задержка видео : -296 мс.
    Размер потока : 52, 1 Мбайт (5%)
    Аудио #6
    Идентификатор : 189 (0xBD)-133 (0x85)
    Формат : AC-3
    Формат/Информация : Audio Coding 3
    Расширение режима : CM (complete main)
    Параметр Endianness формата : Big
    Режим смешивания : DVD-Video
    Продолжительность : 18 м.
    Вид битрейта : Постоянный
    Битрейт : 384 Кбит/сек
    Каналы : 6 каналов
    Расположение каналов : Front: L C R, Side: L R, LFE
    Частота : 48, 0 КГц
    Метод сжатия : С потерями
    Задержка видео : -296 мс.
    Размер потока : 52, 1 Мбайт (5%)
    Текст #1
    Идентификатор : 189 (0xBD)-32 (0x20)
    Формат : RLE
    Формат/Информация : Run-length encoding
    Режим смешивания : DVD-Video
    Продолжительность : 18 м.
    Задержка видео : 720 мс.
    Текст #2
    Идентификатор : 189 (0xBD)-33 (0x21)
    Формат : RLE
    Формат/Информация : Run-length encoding
    Режим смешивания : DVD-Video
    Продолжительность : 18 м.
    Задержка видео : 720 мс.
    Текст #3
    Идентификатор : 189 (0xBD)-34 (0x22)
    Формат : RLE
    Формат/Информация : Run-length encoding
    Режим смешивания : DVD-Video
    Продолжительность : 18 м.
    Задержка видео : 720 мс.
    Текст #4
    Идентификатор : 189 (0xBD)-35 (0x23)
    Формат : RLE
    Формат/Информация : Run-length encoding
    Режим смешивания : DVD-Video
    Продолжительность : 18 м.
    Задержка видео : 720 мс.
    Текст #5
    Идентификатор : 189 (0xBD)-36 (0x24)
    Формат : RLE
    Формат/Информация : Run-length encoding
    Режим смешивания : DVD-Video
    Продолжительность : 18 м.
    Задержка видео : 720 мс.
    Текст #6
    Идентификатор : 189 (0xBD)-37 (0x25)
    Формат : RLE
    Формат/Информация : Run-length encoding
    Режим смешивания : DVD-Video
    Продолжительность : 18 м.
    Задержка видео : 720 мс.
    Текст #7
    Идентификатор : 189 (0xBD)-38 (0x26)
    Формат : RLE
    Формат/Информация : Run-length encoding
    Режим смешивания : DVD-Video
    Продолжительность : 18 м.
    Задержка видео : 720 мс.
    Текст #8
    Идентификатор : 189 (0xBD)-39 (0x27)
    Формат : RLE
    Формат/Информация : Run-length encoding
    Режим смешивания : DVD-Video
    Продолжительность : 18 м.
    Задержка видео : 720 мс.
    Текст #9
    Идентификатор : 189 (0xBD)-40 (0x28)
    Формат : RLE
    Формат/Информация : Run-length encoding
    Режим смешивания : DVD-Video
    Продолжительность : 18 м.
    Задержка видео : 720 мс.
    Текст #10
    Идентификатор : 189 (0xBD)-41 (0x29)
    Формат : RLE
    Формат/Информация : Run-length encoding
    Режим смешивания : DVD-Video
    Продолжительность : 18 м.
    Задержка видео : 720 мс.
    Текст #11
    Идентификатор : 189 (0xBD)-42 (0x2A)
    Формат : RLE
    Формат/Информация : Run-length encoding
    Режим смешивания : DVD-Video
    Продолжительность : 18 м.
    Задержка видео : 720 мс.
    Текст #12
    Идентификатор : 189 (0xBD)-43 (0x2B)
    Формат : RLE
    Формат/Информация : Run-length encoding
    Режим смешивания : DVD-Video
    Продолжительность : 18 м.
    Задержка видео : 720 мс.
    Текст #13
    Идентификатор : 189 (0xBD)-44 (0x2C)
    Формат : RLE
    Формат/Информация : Run-length encoding
    Режим смешивания : DVD-Video
    Продолжительность : 18 м.
    Задержка видео : 720 мс.
    Текст #14
    Идентификатор : 189 (0xBD)-45 (0x2D)
    Формат : RLE
    Формат/Информация : Run-length encoding
    Режим смешивания : DVD-Video
    Продолжительность : 18 м.
    Задержка видео : 720 мс.
    Текст #15
    Идентификатор : 189 (0xBD)-46 (0x2E)
    Формат : RLE
    Формат/Информация : Run-length encoding
    Режим смешивания : DVD-Video
    Продолжительность : 18 м.
    Задержка видео : 720 мс.
    Текст #16
    Идентификатор : 189 (0xBD)-47 (0x2F)
    Формат : RLE
    Формат/Информация : Run-length encoding
    Режим смешивания : DVD-Video
    Продолжительность : 18 м.
    Задержка видео : 720 мс.
    Текст #17
    Идентификатор : 189 (0xBD)-48 (0x30)
    Формат : RLE
    Формат/Информация : Run-length encoding
    Режим смешивания : DVD-Video
    Продолжительность : 18 м.
    Задержка видео : 720 мс.
    Текст #18
    Идентификатор : 189 (0xBD)-49 (0x31)
    Формат : RLE
    Формат/Информация : Run-length encoding
    Режим смешивания : DVD-Video
    Продолжительность : 18 м.
    Задержка видео : 720 мс.
    Текст #19
    Идентификатор : 189 (0xBD)-50 (0x32)
    Формат : RLE
    Формат/Информация : Run-length encoding
    Режим смешивания : DVD-Video
    Продолжительность : 18 м.
    Задержка видео : 720 мс.
    Текст #20
    Идентификатор : 189 (0xBD)-51 (0x33)
    Формат : RLE
    Формат/Информация : Run-length encoding
    Режим смешивания : DVD-Video
    Продолжительность : 18 м.
    Задержка видео : 720 мс.
    Текст #21
    Идентификатор : 189 (0xBD)-52 (0x34)
    Формат : RLE
    Формат/Информация : Run-length encoding
    Режим смешивания : DVD-Video
    Продолжительность : 18 м.
    Задержка видео : 720 мс.
    Текст #22
    Идентификатор : 189 (0xBD)-53 (0x35)
    Формат : RLE
    Формат/Информация : Run-length encoding
    Режим смешивания : DVD-Video
    Продолжительность : 18 м.
    Задержка видео : 720 мс.
    Меню
    Скриншоты


    Залил: carisha

    Онлайн видео Пятьдесят к одному


    Размер скачиваемого торрента: 6.90 GB (7407665152 Bytes)

    Пятьдесят к одному/50 to 1 (2014) DVD9 | Лицензия
    загрузка...
    Рейтинг →
     (голосов: 1, оценка 3/5, голосовать можно 1 раз )

    Другие торренты по теме:

  • Эрика Леонард Джеймс - Пятьдесят оттенков серого (2013) MP3 торрент скачать бесплатно
  • Эрика Леонард Джеймс - На пятьдесят оттенков темнее (2013) MP3 торрент скачать бесплатно
  • 50х50 / Пятьдесят на пятьдесят / Фифти-фифти (1989-2000) TVRip скачать через торрент бесплатно
  • Эрика Леонард Джеймс - Пятьдесят оттенков. Трилогия (2013) M4B торрент скачать бесплатно
  • Пятьдесят оттенков серого / Fifty Shades of Grey (2015) HD 1080p | Трейлер торрент скачать бесплатно
  • Ешьте и молодейте. Для тех, кому за пятьдесят скачать через торрент бесплатно
  • Пятьдесят оттенков подчинения торрент скачать бесплатно
  • Пятьдесят оттенков серого (2015) HDRip скачать торрент бесплатно


    • Комментарии (0):

      Информация

      Информация

        Посетители, находящиеся в группе Гости, не могут оставлять комментарии в данной новости.

        ↓ Меню



        ↓ Опрос

        А Вы добавили сайт в закладки?
        Да
        Не


        Top 10 за неделю (Фильмы)