.
Авторизация | Регистрация
» » Темная материя / Dark Matter (2015) WEB-DL 1080p | LostFilm скачать торрент бесплатно




    Темная материя / Dark Matter (2015) WEB-DL 1080p | LostFilm скачать торрент бесплатно

    Опубликовал: Админ | Дата: 2-07-2015, 05:05 | Просмотров: 104



    Детально о кино
    Русское название: Темная материя
    Русское название в мировом прокате: Dark Matter
    Создали в: 2015
    Категория жанра: фантастика, триллер, драма
    Главный режиссер: Рон Мерфи, Т.Дж. Скотт, Паоло Барзмен

    Актеры
    Марк Бендавид (Первый), Мелисса О’Нил (Вторая), Энтони Лемке (Третий), Алекс Маллари мл. (Четвертый), Джодель Ферланд (Пятая), Роджер Р. Кросс (Шестой)

    Сюжет фильма

    Заброшенный космический корабль. Шесть человек выходят из состояния стазиса и понимают, что все они потеряли память. Никто из героев не помнит собственного имени, а также того, как и с какой целью он оказался на борту. Каждый из членов экипажа имеет свои способности и навыки, которые, несмотря на амнезию, остались при них. И лишь объединившись в единую команду и заручившись поддержкой находящегося на борту робота, герои смогут понять, что же произошло на самом деле. После чего им предстоит задуматься о выживании, ведь сам корабль и космическое пространство вокруг него таят множество неприятных сюрпризов. Впрочем, чрезвычайно опасны и сами загадочные пассажиры...

    Снималось в: Канада
    Киностудия: Prodigy Pictures
    Время просмотра: ~ 00: 43: 00 серия
    Перевод текста: Профессиональный (многоголосый закадровый)LostFilm
    Файл
    Кодек для видео: AVC/H.264
    Качество фильма: WEB-DL 1080p
    Информация о видео: 1920x1080 (1.778), 23.976 fps, ~ 4800 kbps
    Информация о звуке:
    Информация о звуке rus: AC-3, 48 KHz, 6 ch, 384 kbps | LostFilm
    Информация о звуке eng: AC-3, 48 KHz, 6 ch, 384 kbps | original
    Субтитры: английские
    Семпл
    Подготовка релиза

    Монтаж, работа со звуком LostFilm: Skyns61
    Выделенный Voiceover от LostFilm был наложен на центр оригинального AC3.

    Инфо-файл

    Общее
    Уникальный идентификатор : 198876790687952115090356680786707207155 (0x959E46D212A0802FA8156EEFD0EBD3F3)
    Полное имя : G: FilmsDark.Matter.S01.1080pDark.Matter.S01E01.1080p.WEB-DL.DD5.1.mkv
    Формат : Matroska
    Версия формата : Version 4/Version 2
    Размер файла : 1, 71 Гбайт
    Продолжительность : 43 м.
    Общий поток : 5667 Кбит/сек
    Дата кодирования : UTC 2015-06-16 09: 15: 49
    Программа кодирования : mkvmerge v7.9.0 (;Birds;) 64bit
    Библиотека кодирования : libebml v1.3.1 + libmatroska v1.4.2
    _STATISTICS_WRITING_APP : mkvmerge v7.9.0 (;Birds;) 64bit
    _STATISTICS_WRITING_DATE_UTC : 2015-06-16 09: 15: 49
    _STATISTICS_TAGS : BPS DURATION NUMBER_OF_FRAMES NUMBER_OF_BYTES
    DURATION : 00: 43: 06.656000000
    NUMBER_OF_FRAMES : 80833
    NUMBER_OF_BYTES : 124159488
    Видео
    Идентификатор : 1
    Формат : AVC
    Формат/Информация : Advanced Video Codec
    Профиль формата : High@L4.0
    Параметр CABAC формата : Да
    Параметр ReFrames формата : 4 кадра
    Идентификатор кодека : V_MPEG4/ISO/AVC
    Продолжительность : 43 м.
    Битрейт : 4787 Кбит/сек
    Ширина : 1920 пикселей
    Высота : 1080 пикселей
    Соотношение сторон : 16: 9
    Режим частоты кадров : Постоянный
    Частота кадров : 23, 976 кадра/сек
    Цветовое пространство : YUV
    Субдискретизация насыщенности : 4: 2: 0
    Битовая глубина : 8 бит
    Тип развёртки : Прогрессивная
    Бит/(Пиксели*Кадры) : 0.096
    Размер потока : 1, 44 Гбайт (84%)
    Язык : English
    Default : Да
    Forced : Нет
    Основные цвета : BT.709
    Характеристики трансфера : BT.709
    Коэффициенты матрицы : BT.709
    colour_range : Limited
    Аудио #1
    Идентификатор : 2
    Формат : AC-3
    Формат/Информация : Audio Coding 3
    Расширение режима : CM (complete main)
    Параметр Endianness формата : Big
    Идентификатор кодека : A_AC3
    Продолжительность : 43 м.
    Вид битрейта : Постоянный
    Битрейт : 384 Кбит/сек
    Каналы : 6 каналов
    Расположение каналов : Front: L C R, Side: L R, LFE
    Частота : 48, 0 КГц
    Битовая глубина : 16 бит
    Метод сжатия : С потерями
    Размер потока : 118 Мбайт (7%)
    Заголовок : LostFilm 5.1
    Язык : Russian
    Default : Да
    Forced : Нет
    Аудио #2
    Идентификатор : 3
    Формат : AC-3
    Формат/Информация : Audio Coding 3
    Расширение режима : CM (complete main)
    Параметр Endianness формата : Big
    Идентификатор кодека : A_AC3
    Продолжительность : 43 м.
    Вид битрейта : Постоянный
    Битрейт : 384 Кбит/сек
    Каналы : 6 каналов
    Расположение каналов : Front: L C R, Side: L R, LFE
    Частота : 48, 0 КГц
    Битовая глубина : 16 бит
    Метод сжатия : С потерями
    Размер потока : 118 Мбайт (7%)
    Заголовок : original 5.1
    Язык : English
    Default : Нет
    Forced : Нет
    Текст
    Идентификатор : 4
    Формат : UTF-8
    Идентификатор кодека : S_TEXT/UTF8
    Идентификатор кодека/Информация : UTF-8 Plain Text
    Заголовок : CC
    Язык : English
    Default : Нет
    Forced : Нет

    Скриншоты

    Раздача ведется путем добавления новых серий:

    Когда раздача ведётся путём добавления новых серий, при каждом добавлении создётся новый торрент. Чтобы начать докачку новой серии, пользователям необходимо сделать следующее:
    (1) остановить скачивание,
    (2) удалить старый торрент у себя из клиента (старые серии удалять не надо),
    (3) скачать новый торрент и запустить его у себя в клиенте вместо старого, при этом указать клиенту путь в старую папку, куда и должно происходить скачивание новых серий.
    Ваш клиент при этом должен произвести хеширование (проверку) старой папки (если не производит сам - помогите ему сделать это), и будет докачивать только те серии, которых у вас ещё нет. Старые серии при этом не удаляются, а продолжают раздаваться!
    Eсли вы уже удалили старые серии, то предотвратить повторную закачку старых серий можно, отжав галочку в соответсвующих местах при запуске нового торрента. По возможности, желательно не удалять старые серии как можно дольше, чтобы релизёр не столько продолжал раздавать старые серии, а смог сконцентрироваться на новых.

    Релиз подготовил: Skyns61
    Залил: skyn s61

    Онлайн видео Темная материя


    Размер скачиваемого торрента: 5.10 GB (5477351890 Bytes)

    Темная материя/Dark Matter (2015) WEB-DL 1080p | LostFilm
    загрузка...
    Рейтинг →
     (голосов: 1, оценка 5/5, голосовать можно 1 раз )

    Другие торренты по теме:

  • Темный дворецкий / Kuroshitsuji II / Dark Butler (2010) BDRip 720p от FilmRus торрент скачать бесплатно
  • Тайны Духов: Темный Минотавр / Spirits of Mystery 3: The Dark Minotaur CE (2012) PC торрент скачать бесплатно
  • Темный сахар / Brown Sugar (2002) DVDRip-AVC от Youtracker | P торрент скачать бесплатно
  • Темные истории: Эдгар Аллан По. Золотой жук / Dark Tales 4: Edgar Allan Poes The Gold Bug CE (2013) PC торрент скачать бесплатно
  • Темный Рыцарь: Возрождение Легенды. Часть 2 / Batman: The Dark Knight Returns, Part 2 (2013) BDRemux 1080p | GOLIAF торрент скачать бесплатно
  • Темный рыцарь: Возрождение легенды / The Dark Knight Rises (2012) HDRip | iPhone, iPod Touch, iPad торрент скачать бесплатно
  • Темная тайна: Ярмарка - Коллекционное издание (2012) РС торрент скачать бесплатно
  • Темная Вода / Dark Water (2005) BDRip 1080p торрент скачать бесплатно


    • Комментарии (0):

      Информация

      Информация

        Посетители, находящиеся в группе Гости, не могут оставлять комментарии в данной новости.

        ↓ Меню



        ↓ Опрос

        А Вы добавили сайт в закладки?
        Да
        Не


        Top 10 за неделю (Фильмы)