.
Авторизация | Регистрация
» » Подвиг разведчика (1947) DVDRip от New-Team скачать торрент бесплатно




    Подвиг разведчика (1947) DVDRip от New-Team скачать торрент бесплатно

    Опубликовал: Админ | Дата: 2-07-2015, 05:07 | Просмотров: 106



    Снималось в: СССР
    Создали в: Киевская киностудия
    Категория жанра: драма, военный
    Создали в: 1947
    Время просмотра: 01: 06: 22
    Перевод текста: Не требуется
    Субтитры подготовлены: нет
    Оригинальная аудиодорожка: русский
    Главный режиссер: Борис Барнет

    Актеры

    Павел Кадочников, Виктор Добровольский, Амвросий Бучма, Дмитрий Милютенко, Сергей Мартинсон, Елена Измайлова, Борис Барнет, Михаил Романов, Петр Аржанов, Евгений Балиев, Валерия Драга, Сергей Петров, Виктор Халатов, В. Улесова, Алексей Быков...
    Описание:
    Советский разведчик Алексей Федотов под именем Генриха Эккерта отправляется в оккупированную немцами Винницу. Его цель — добыть секретную переписку генерала Кюна со ставкой Гитлера. Радист, посланный к Алексею для связи, пойман немцами и расстрелян. Федотов вынужден искать связь через подполье, но случайно он узнает, что один из подпольщиков — провокатор. Блестящий профессионал не только выполняет задание по сбору ценнейшей информации, но и, возвращаясь на Родину, прихватывает с собой самого генерала.



    Источник: DVD5 R5
    Качество фильма видео: DVDRip
    Тип видео видео: AVI
    Информация о видео: 640x480 (4: 3), 25 fps, XviD ~ 1026 kbps avg, 0.134 bit/pixel
    Информация о звуке: 48 kHz, MP3 2.0, 128 kbps
    Раздача от:
    MediaInfo

    Общее
    Полное имя : Podvig.razvedchika.1947.DVDRip-745_New-team_by_AVP_Studio.avi
    Формат : AVI
    Формат/Информация : Audio Video Interleave
    Размер файла : 745 Мбайт
    Продолжительность : 1 ч. 29 м.
    Общий поток : 1164 Кбит/сек
    Программа кодирования : VirtualDubModRus 1.5.10.2 (build 2542/release)
    Библиотека кодирования : VirtualDubMod build 2542/release
    Видео
    Идентификатор : 0
    Формат : MPEG-4 Visual
    Профиль формата : Advanced Simple@L5
    Параметр BVOP формата : 1
    Параметр QPel формата : Нет
    Параметр GMC формата : Без точки перехода
    Параметр матрицы формата : Выборочная
    Идентификатор кодека : XVID
    Идентификатор кодека/Подсказка : XviD
    Продолжительность : 1 ч. 29 м.
    Битрейт : 1026 Кбит/сек
    Ширина : 640 пикселей
    Высота : 480 пикселей
    Соотношение сторон : 4: 3
    Частота кадров : 25, 000 кадров/сек
    Цветовое пространство : YUV
    Субдискретизация насыщенности : 4: 2: 0
    Битовая глубина : 8 бит
    Тип развёртки : Прогрессивная
    Метод сжатия : С потерями
    Бит/(Пиксели*Кадры) : 0.134
    Размер потока : 657 Мбайт (88%)
    Библиотека кодирования : XviD 73
    Аудио
    Идентификатор : 1
    Формат : MPEG Audio
    Версия формата : Version 1
    Профиль формата : Layer 3
    Идентификатор кодека : 55
    Идентификатор кодека/Подсказка : MP3
    Продолжительность : 1 ч. 29 м.
    Вид битрейта : Постоянный
    Битрейт : 128 Кбит/сек
    Каналы : 2 канала
    Частота : 48, 0 КГц
    Метод сжатия : С потерями
    Размер потока : 82, 0 Мбайт (11%)
    Выравнивание : Соединение по промежуткам
    Продолжительность промежутка : 40 мс. (1, 00 видеокадр)
    Время предзагрузки промежутка : 504 мс.
    Библиотека кодирования : LAME3.99r
    Залил: AVPStudio

    Онлайн видео Подвиг разведчика (1947) DVDRip от New


    Размер скачиваемого торрента: 745.44 MB (781645824 Bytes)


    Подвиг разведчика (1947) DVDRip от New-Team
    загрузка...
    Рейтинг →
     (голосов: 1, оценка 3/5, голосовать можно 1 раз )

    Другие торренты по теме:



      Комментарии (0):

      Информация

      Информация

        Посетители, находящиеся в группе Гости, не могут оставлять комментарии в данной новости.

        ↓ Меню



        ↓ Опрос

        А Вы добавили сайт в закладки?
        Да
        Не


        Top 10 за неделю (Фильмы)