.
Авторизация | Регистрация




Меч (2009) DVDRip-AVC скачать торрент бесплатно

Опубликовал: Админ | Дата: 3-07-2015, 05:01 | Просмотров: 139



Русское название: Меч
Создали в: 2009
Категория жанра: Боевик, драма, криминал
Снималось в: Россия/DIXI-TV
Главный режиссер: Рустам Уразаев, Виктор Конисевич

Актеры
Эдуард Флёров, Роман Курцын, Тимур Ефременков, Дарья Повереннова, Виктория Фишер, Александр Баринов, Нина Гогаева, Владислав Павлов, Александр Фисенко, Шухрат Иргашев, Сергей Фишер, Дмитрий Миронов, Геннадий Подшивалов, Наталья Коновалова, Игорь Карлов, Дмитрий Антимонов, Александр Горохов (II), Александр Воробьёв (II), Анастасия Тюфякина, Дмитрий Родионов (II), Никита Новиков, Яна Белугина, Александр Зельский, Дмитрий Белогуров, Илья Кремнев, Сергей Холмогоров, Марина Налетова, Павел Фалов, Ольга Жилова, Дмитрий Ефремов, Магомед Аваданский, Ангелина Ноздрина, Сергей Болотаев, Адам Булгучев, Григорий Меликбекян, Дмитрий Чибизов, Сергей Колокольцев
Описание:
Наши дни. Москва. Растущий мегаполис выходит из-под контроля милиции. Уровень преступности растет в геометрической прогрессии. Макс Калинин бывший офицер разведки ВДВ, оперативник УБОП. По фиктивному обвинению его увольняют со службы. На деле Макс просто не согласился отпустить преступника, за которого кто-то из его руководства получил большую взятку. Калинин принимает непростое решение, он будет бороться с беззаконием своими методами. Макс собирает маленькую команду единомышленников. Команда разрастается и постепенно превращается в опасную и жестокую карательную организацию, которой боятся все. Они выбирают своим знаком меч, так же их называют и журналисты. На улицах города разворачивается настоящая война. Меч находится между двух зол — криминального мира, который объявляет огромные деньги за их головы и своих бывших коллег, которые начинают охоту на оборотней.

Качество фильма: DVDRip-AVC
Информация о видео: MPEG-4 AVC, ~1400 Кбит/с, 720x400, 25.000 кадр/с
Информация о звуке: AC3, 2 ch, 192 Кбит/с
Время просмотра: 25 x ~ 00: 48: 00
Содержание
01. Приговор
02. Нас будут бояться
03. Готовься к войне
04. Высший закон
05. Первый удар
06. Охота
07. В ловушке
08. Террор
09. Пленных не брать
10. Месть
11. Найти любой ценой
12. Гидра
13. Маскарад
14. Единственный выход
15. Прятки
16. Ловкач
17. Дуэль
18. На дороге
19. Бой
20. Война
21. Переворот
22. Манифест
23. Суд
24. Нокдаун
25. Победа или смерть
M/I
General
Unique ID : 263154949562576747179466087837275336979 (0xC5F9CCBB9AED55FE9D936F9C9EB93113)
Complete name : F: СериалыМеч 25 (2009) DVDRip-AVCMech.(14.seriya.iz.25).2009.DVDRIP_AVC.-=DoMiNo=-.mkv
Format : Matroska
Format version : Version 4/Version 2
File size : 564 MiB
Duration : 47mn 51s
Overall bit rate : 1 647 Kbps
Writing application : Lavf56.1.100
Writing library : Lavf56.1.100
ENCODING_INFO : MATROSKA, WEBM MKV/MPEG2 X264 CRF 18, 0 Custom/AC3 COPY
Video
ID : 1
Format : AVC
Format/Info : Advanced Video Codec
Format profile : High@L4.1
Format settings, CABAC : Yes
Format settings, ReFrames : 12 frames
Codec ID : V_MPEG4/ISO/AVC
Duration : 47mn 51s
Bit rate : 1 422 Kbps
Width : 720 pixels
Height : 400 pixels
Display aspect ratio : 16: 9
Frame rate mode : Constant
Frame rate : 25.000 fps
Color space : YUV
Chroma subsampling : 4: 2: 0
Bit depth : 8 bits
Scan type : Progressive
Bits/(Pixel*Frame) : 0.198
Stream size : 487 MiB (86%)
Default : Yes
Forced : No
Audio
ID : 2
Format : AC-3
Format/Info : Audio Coding 3
Mode extension : CM (complete main)
Format settings, Endianness : Big
Codec ID : A_AC3
Duration : 47mn 51s
Bit rate mode : Constant
Bit rate : 192 Kbps
Channel(s) : 2 channels
Channel positions : Front: L R
Sampling rate : 48.0 KHz
Bit depth : 32 bits
Compression mode : Lossy
Stream size : 65.7 MiB (12%)
Default : Yes
Forced : No

Размер скачиваемого торрента: 13.79 GB (14810173452 Bytes)

Меч (2009) DVDRip-AVC
загрузка...
Рейтинг →
 (голосов: 1, оценка 4/5, голосовать можно 1 раз )

Другие торренты по теме:

  • Китами Масао - Самурай без меча (2009) PDF скачать торрент бесплатно
  • Меч (2009) DVDRip от Generalfilm-Files-X | КПК скачать торрент бесплатно
  • Меч (2009) DVDRip от MediaClub | КПК скачать торрент бесплатно
  • Меч (2009) DVDRip от GeneralFilm скачать торрент бесплатно
  • Меч (2009) DVDRip от GeneralFilm скачать торрент бесплатно
  • Скуби-Ду и меч самурая / Scooby-Doo! and the Samurai Sword (2009) BDRip-AVC от ExKinoRay | D, P скачать через торрент бесплатно
  • Скуби-Ду и меч самурая / Scooby-Doo! and the Samurai Sword (2009) BDRip от ExKinoRay скачать через торрент бесплатно
  • Скуби-Ду и меч самурая / Scooby-Doo! and the Samurai Sword (2009) BDRip от HQCLUB торрент скачать бесплатно


    • Комментарии (0):

      Информация

      Информация

        Посетители, находящиеся в группе Гости, не могут оставлять комментарии в данной новости.

        ↓ Меню



        ↓ Опрос

        А Вы добавили сайт в закладки?
        Да
        Не


        Top 10 за неделю (Фильмы)