.
Авторизация | Регистрация
» » Тайна четырех принцесс (2014) DVD5 | Лицензия скачать торрент бесплатно




    Тайна четырех принцесс (2014) DVD5 | Лицензия скачать торрент бесплатно

    Опубликовал: Админ | Дата: 3-07-2015, 05:06 | Просмотров: 143



    Детально о кино
    Русское название: Тайна четырех принцесс
    Создали в: 2014
    Категория жанра: комедия, фэнтези
    Главный режиссер: Олег Штром

    Актеры
    Кристина Орбакайте, Сергей Жигунов, Александр Стриженов, Юрий Гальцев, Юлия Паршута, Дмитрий Бурукин, Андрей Федорцов, Сергей Степанченко, Сергей Дорогов, Вадим Галыгин

    Сюжет фильма

    В некотором царстве, в некотором государстве жил-был весёлый и добрый портной по имени Ганс. Он был молод и не очень богат, а если точнее практически беден, и жители царства-государства звали его просто портняжка Ганс. По воле судьбы он оказывается во дворце короля, который поручает Гансу раскрыть тайну своих дочерей — молодых принцесс, которые каждую ночь куда-то исчезают. А в это время в другом царстве королева Гурунда решила женить своих принцев-сыновей на дочерях соседних сказочно богатых королей. Но беда в том, что сами сыновья уже выбрали себе невест. Отказ сыновей повиноваться вызвал у Гурунды ярость. Она в сердцах проклинает их и превращает в воронов, оставив им только несколько часов на пребывание в человеческом облике — с полночи до трех утра.

    Снималось в: Россия
    Киностудия: КАРО-Продакшн
    Время просмотра: 87 мин./01: 27
    Перевод текста: не требуется
    Файл
    Кодек для видео: MPEG2
    Качество фильма: DVD5
    Информация о видео: PAL 16: 9 (720x576@1024x576) CBR 6500 Kbps, 25.000 fps
    Информация о звуке: Dolby AC3, 6 ch, 48.0 KHz, 448 Кbps
    Субтитры: отсутствуют
    MediaInfo
    Общее
    Полное имя : E: Tajna.4.printsess.2014.DVD5VIDEO_TSVTS_03_1.VOB
    Формат : MPEG-PS
    Размер файла : 1024 Мбайт
    Продолжительность : 20 м.
    Общий поток : 7070 Кбит/сек
    Видео
    Идентификатор : 224 (0xE0)
    Формат : MPEG Video
    Версия формата : Version 2
    Профиль формата : Main@Main
    Параметр BVOP формата : Да
    Параметр матрицы формата : Выборочная
    Параметр GOP формата : Variable
    Структура изображения : Frame
    Продолжительность : 20 м.
    Битрейт : 6500 Кбит/сек
    Ширина : 720 пикселей
    Высота : 576 пикселей
    Соотношение сторон : 16: 9
    Частота кадров : 25, 000 кадров/сек
    Стандарт вещания : PAL
    Цветовое пространство : YUV
    Субдискретизация насыщенности : 4: 2: 0
    Битовая глубина : 8 бит
    Тип развёртки : Чересстрочная
    Порядок развёртки : Верхнее поле первое
    Метод сжатия : С потерями
    Бит/(Пиксели*Кадры) : 0.627
    Временной код первого кадра : 00: 00: 00: 00
    Оригинал временного кода : Group of pictures t_head
    GOP, открыто/закрыто : Открыто
    GOP, открыто/закрыто на первом кадре : Закрыто
    Размер потока : 939 Мбайт (92%)
    Аудио
    Идентификатор : 189 (0xBD)-128 (0x80)
    Формат : AC-3
    Формат/Информация : Audio Coding 3
    Расширение режима : CM (complete main)
    Параметр Endianness формата : Big
    Режим смешивания : DVD-Video
    Продолжительность : 20 м.
    Вид битрейта : Постоянный
    Битрейт : 448 Кбит/сек
    Каналы : 6 каналов
    Расположение каналов : Front: L C R, Side: L R, LFE
    Частота : 48, 0 КГц
    Метод сжатия : С потерями
    Размер потока : 64, 9 Мбайт (6%)
    Меню
    Скриншоты


    Залил: carisha

    Онлайн видео Тайна четырех принцесс (2014) DVD5


    Размер скачиваемого торрента: 4.35 GB (4671621120 Bytes)

    Тайна четырех принцесс (2014) DVD5 | Лицензия
    загрузка...
    Рейтинг →
     (голосов: 1, оценка 3/5, голосовать можно 1 раз )

    Другие торренты по теме:

  • Тайна четырех принцесс (2014) DVDRip от MegaPeer | Лицензия скачать торрент бесплатно
  • Тайна четырех принцесс (2014) DVDRip | Лицензия скачать торрент бесплатно
  • Тайна четырех принцесс (2014) DVDRip от MAGNAT231 | КПК | Лицензия скачать торрент бесплатно
  • Тайна четырех принцесс / 2014 / РУ / DVDRip скачать торрент бесплатно


    • Комментарии (0):

      Информация

      Информация

        Посетители, находящиеся в группе Гости, не могут оставлять комментарии в данной новости.

        ↓ Меню



        ↓ Опрос

        А Вы добавили сайт в закладки?
        Да
        Не


        Top 10 за неделю (Фильмы)