.
Авторизация | Регистрация
» » Алая буква / The Scarlet Letter (1995) WEB-DLRip от Leon-masl | P скачать торрент бесплатно




    Алая буква / The Scarlet Letter (1995) WEB-DLRip от Leon-masl | P скачать торрент бесплатно

    Опубликовал: Админ | Дата: 3-07-2015, 05:08 | Просмотров: 87



    Детально о кино
    Русское название: Алая буква
    Русское название в мировом прокате: The Scarlet Letter
    Создали в: 1995
    Категория жанра: Укажите жанры, разделяя запятыми
    Главный режиссер: Роланд Жоффе

    Актеры
    Деми Мур , Гари Олдман , Роберт Дювалл , Лиза Жолиффе-Андо, Эдвард Хардуик, Роберт Проски, Рой Дотрис, Джоан Плаурайт, Малкольм Сторри, Джеймс Берден

    Сюжет фильма

    История запретной любви в Америке 17-го века красавицы Эстер и преподобного Артура. Против влюбленных выступают строгие пуританские нравы и особенно то, что Эстер де-юре замужем, хотя и считает мужа погибшим на пути к колонии.
    Когда её внебрачные отношения раскрываются, Эстер решительно отказывается предать возлюбленного и ей выносят приговор - вечно носить на груди алую букву А - клеймо прелюбодеяния.

    Снималось в: США
    Время просмотра: 02: 15: 24
    Перевод текста: Многоголосый закадровый, iTunes Russia
    Файл
    Кодек для видео: XviD
    Качество фильма: WEB-DLRip
    Информация о видео: 688x384, 23, 976 fps, 1352 kbps
    Информация о звуке: 48 kHz, AC3, 2/0 (L, R) ch, ~192.00 kbps
    MI
    Общее
    Полное имя : The.Scarlet.Letter.1995.WEB-DLRip.avi
    Формат : AVI
    Формат/Информация : Audio Video Interleave
    Размер файла : 1, 47 Гбайт
    Продолжительность : 2 ч. 15 м.
    Общий поток : 1553 Кбит/сек
    Программа кодирования : VirtualDubMod 1.5.10.3 | www.virtualdub-fr.org || (build 2550/release)
    Библиотека кодирования : VirtualDubMod build 2550/release
    Видео
    Идентификатор : 0
    Формат : MPEG-4 Visual
    Профиль формата : Advanced Simple@L5
    Параметр BVOP формата : 1
    Параметр QPel формата : Нет
    Параметр GMC формата : Без точки перехода
    Параметр матрицы формата : Выборочная
    Идентификатор кодека : XVID
    Идентификатор кодека/Подсказка : XviD
    Продолжительность : 2 ч. 15 м.
    Битрейт : 1352 Кбит/сек
    Ширина : 688 пикс.
    Высота : 384 пикс.
    Соотношение сторон : 16: 9
    Частота кадров : 23, 976 кадр/сек
    Цветовое пространство : YUV
    Подвыборка цветности : 4: 2: 0
    Битовая глубина : 8 бит
    Тип развёртки : Прогрессивная
    Метод сжатия : С потерями
    Бит/(Пиксели*Кадры) : 0.213
    Размер потока : 1, 28 Гбайт (87%)
    Библиотека кодирования : XviD 73
    Аудио
    Идентификатор : 1
    Формат : AC-3
    Формат/Информация : Audio Coding 3
    Расширение режима : CM (complete main)
    Идентификатор кодека : 2000
    Продолжительность : 2 ч. 15 м.
    Вид битрейта : Постоянный
    Битрейт : 192 Кбит/сек
    Канал(ы) : 2 канала(ов)
    Расположение каналов : Front: L R
    Частота : 48, 0 КГц
    Битовая глубина : 16 бит
    Метод сжатия : С потерями
    Размер потока : 186 Мбайт (12%)
    Выравнивание : Разделение по промежуткам
    Продолжительность промежутка : 42 мс. (1, 00 видеокадр)
    Время предзагрузки промежутка : 500 ms
    Скриншоты

    Релиз подготовил: Leon-masl
    Залил: leon-masl

    Онлайн видео Алая буква


    Размер скачиваемого торрента: 1.47 GB (1577283584 Bytes)

    Алая буква/The Scarlet Letter (1995) WEB-DLRip от Leon-masl | P
    загрузка...
    Рейтинг →
     (голосов: 1, оценка 4/5, голосовать можно 1 раз )

    Другие торренты по теме:



      Комментарии (0):

      Информация

      Информация

        Посетители, находящиеся в группе Гости, не могут оставлять комментарии в данной новости.

        ↓ Меню



        ↓ Опрос

        А Вы добавили сайт в закладки?
        Да
        Не


        Top 10 за неделю (Фильмы)