.
Авторизация | Регистрация
» » Оболтусы / Homies (2015) DVDRip-AVC | L2 скачать торрент бесплатно




    Оболтусы / Homies (2015) DVDRip-AVC | L2 скачать торрент бесплатно

    Опубликовал: Админ | Дата: 3-07-2015, 05:09 | Просмотров: 96



    Детально о кино
    Русское название: Оболтусы
    Русское название в мировом прокате: Homies
    Создали в: 2015
    Категория жанра: комедия
    Главный режиссер: Йон Картхаус

    Актеры
    Каролин Спор, Виктория Кобленко, Роберт де Хуг, Янник ван де Вельде, Дженнифер Хоффман, Геза Вайз, Кики ван Дёрсен, Мануэль Брукман, Чарли Дагелет, Гийс Нейбр

    Сюжет фильма
    Четверо взрослых, но упорно не желающих взрослеть друзей, живут вместе в одной квартире и придумывают разные безумные планы, как бы быстрее заработать много денег. Однажды они переходят дорогу русской мафии и оказываются должны бандитам миллион евро. Если они не найдут деньги за 7 дней, их разрежут на кусочки и скормят акулам в местном океанариуме. Это будет самая безумная неделя в их жизни.


    Снималось в: Нидерланды/Just Productions, RTL Entertainment, Johnnywood ProductionsPartners, Roberi Media, Troika Pictures
    Время просмотра: 01: 36: 36
    Тип перевода: Любительское (двухголосое) Lord32x IREN, перевод Михаил Васильев
    Файл
    Тип видео: MKV
    Качество фильма: DVDRip-AVC
    Информация о видео: 2262 kb/s, 720x424@1024x424
    Информация о звуке: Русский/Голландский: AC3, 384 kb/s (6 ch)
    MI

    Format : Matroska
    Format version : Version 4/Version 2
    File size : 2.05 GiB
    Duration : 1h 36mn
    Overall bit rate : 3 032 Kbps
    Encoded date : UTC 2015-07-02 18: 59: 09
    Writing application : mkvmerge v6.1.0 (;Old Devil;) built on Mar 4 2013 09: 10: 42
    Writing library : libebml v1.3.0 + libmatroska v1.4.0
    Video
    ID : 1
    Format : AVC
    Format/Info : Advanced Video Codec
    Format profile : High@L4.1
    Format settings, CABAC : Yes
    Format settings, ReFrames : 9 frames
    Codec ID : V_MPEG4/ISO/AVC
    Duration : 1h 36mn
    Bit rate : 2 262 Kbps
    Width : 720 pixels
    Height : 424 pixels
    Display aspect ratio : 2.40: 1
    Original display aspect ratio : 2.40: 1
    Frame rate mode : Constant
    Frame rate : 25.000 fps
    Color space : YUV
    Chroma subsampling : 4: 2: 0
    Bit depth : 8 bits
    Scan type : Progressive
    Bits/(Pixel*Frame) : 0.296
    Stream size : 1.49 GiB (73%)
    Writing library : x264 core 130 r2273 b3065e6
    Encoding settings : cabac=1/ref=9/deblock=1: -3: -3/analyse=0x3: 0x133/me=umh/subme=11/psy=1/psy_rd=1.00: 0.20/mixed_ref=1/me_range=32/chroma_me=1/trellis=2/8x8dct=1/cqm=0/deadzone=21, 11/fast_pskip=0/chroma_qp_offset=-3/threads=12/lookahead_threads=2/sliced_threads=0/nr=0/decimate=0/interlaced=0/bluray_compat=0/constrained_intra=0/bframes=8/b_pyramid=2/b_adapt=2/b_bias=0/direct=3/weightb=1/open_gop=0/weightp=2/keyint=250/keyint_min=25/scenecut=40/intra_refresh=0/rc_lookahead=80/rc=2pass/mbtree=1/bitrate=2262/ratetol=1.0/qcomp=0.60/qpmin=0/qpmax=69/qpstep=4/cplxblur=20.0/qblur=0.5/ip_ratio=1.40/aq=1: 1.00
    Language : Dutch
    Default : Yes
    Forced : No
    Audio #1
    ID : 2
    Format : AC-3
    Format/Info : Audio Coding 3
    Mode extension : CM (complete main)
    Format settings, Endianness : Big
    Codec ID : A_AC3
    Duration : 1h 36mn
    Bit rate mode : Constant
    Bit rate : 384 Kbps
    Channel(s) : 6 channels
    Channel positions : Front: L C R, Side: L R, LFE
    Sampling rate : 48.0 KHz
    Bit depth : 16 bits
    Compression mode : Lossy
    Stream size : 265 MiB (13%)
    Language : Russian
    Default : Yes
    Forced : No
    Audio #2
    ID : 3
    Format : AC-3
    Format/Info : Audio Coding 3
    Mode extension : CM (complete main)
    Format settings, Endianness : Big
    Codec ID : A_AC3
    Duration : 1h 36mn
    Bit rate mode : Constant
    Bit rate : 384 Kbps
    Channel(s) : 6 channels
    Channel positions : Front: L C R, Side: L R, LFE
    Sampling rate : 48.0 KHz
    Bit depth : 16 bits
    Compression mode : Lossy
    Stream size : 265 MiB (13%)
    Language : Dutch
    Default : No
    Forced : No
    Скриншоты





    Онлайн видео Оболтусы


    Размер скачиваемого торрента: 2.05 GB (2196759310 Bytes)

    Оболтусы/Homies (2015) DVDRip-AVC | L2
    загрузка...
    Рейтинг →
     (голосов: 1, оценка 3/5, голосовать можно 1 раз )

    Другие торренты по теме:

  • Оболтусы / Homies (2015) DVDRip | L2 скачать торрент бесплатно
  • Оболтусы / Homies (2015) DVDRip | L2 скачать торрент бесплатно


    • Комментарии (0):

      Информация

      Информация

        Посетители, находящиеся в группе Гости, не могут оставлять комментарии в данной новости.

        ↓ Меню



        ↓ Опрос

        А Вы добавили сайт в закладки?
        Да
        Не


        Top 10 за неделю (Фильмы)