.
Авторизация | Регистрация
» » Один и без оружия (1984) DVDRip от New-Team скачать торрент бесплатно




    Один и без оружия (1984) DVDRip от New-Team скачать торрент бесплатно

    Опубликовал: Админ | Дата: 4-07-2015, 05:04 | Просмотров: 135



    Снималось в: CCCP
    Создали в: Свердловская киностудия
    Категория жанра: боевик, приключения
    Создали в: 1984
    Время просмотра: 01: 12: 32
    Перевод текста: не требуется
    Оригинальная аудиодорожка: русский
    Субтитры подготовлены: нет
    Главный режиссер: Владимир Хотиненко, Павел Фаттахутдинов

    Актеры

    Василий Мищенко, Иван Агафонов, Всеволод Ларионов, Виктор Борцов, Борис Галкин, Валерий Захарьев, Андрей Зыков, Адольф Ильин, Дилором Камбарова, Михаил Кононов, Авангард Леонтьев, Елена Майорова, Талгат Нигматулин, Николай Сморчков, Янис Клушс, Пётр Олев, Петр Полев, Александр Сухих...

    Действие приключенческого фильма происходят в 1927 году в небольшом губернском городке. Новым начальником уголовного розыска назначается бывший красный командир Константин Воронцов. В это время в городе появляется матерый рецидивист Корней. Благодаря успешно проведенной операции, становится известно место воровского схода, но Корней, предчувствуя засаду, в последний момент меняет место встречи. Времени предупредить своих у Воронцова нет, и ему приходится одному идти на воровской сход…



    Исходник: DVD5 R5
    Тип релиза: DVDRip
    Контейнер: AVI
    Информация о видео: 688x528 (4: 3), 25 fps, XviD ~ 2482 kbps avg, 0.273 bit/pixel
    Информация о звуке: 48 kHz, Dolby Digital AC3 5.1, 384 kbps
    Раздача от:
    MediaInfo

    Общее
    Полное имя : Odin.i.bez.oruzhiya.1984.DVDRip_New-team_by_AVP_Studio.avi
    Формат : AVI
    Формат/Информация : Audio Video Interleave
    Размер файла : 1, 46 Гбайт
    Продолжительность : 1 ч. 12 м.
    Общий поток : 2875 Кбит/сек
    Программа кодирования : VirtualDubModRus 1.5.10.2 (build 2542/release)
    Библиотека кодирования : VirtualDubMod build 2542/release
    Видео
    Идентификатор : 0
    Формат : MPEG-4 Visual
    Профиль формата : Advanced Simple@L5
    Параметр BVOP формата : 1
    Параметр QPel формата : Нет
    Параметр GMC формата : Без точки перехода
    Параметр матрицы формата : Выборочная
    Идентификатор кодека : XVID
    Идентификатор кодека/Подсказка : XviD
    Продолжительность : 1 ч. 12 м.
    Битрейт : 2482 Кбит/сек
    Ширина : 688 пикселей
    Высота : 528 пикселей
    Соотношение сторон : 4: 3
    Частота кадров : 25, 000 кадров/сек
    Цветовое пространство : YUV
    Субдискретизация насыщенности : 4: 2: 0
    Битовая глубина : 8 бит
    Тип развёртки : Прогрессивная
    Метод сжатия : С потерями
    Бит/(Пиксели*Кадры) : 0.273
    Размер потока : 1, 26 Гбайт (86%)
    Библиотека кодирования : XviD 73
    Аудио
    Идентификатор : 1
    Формат : AC-3
    Формат/Информация : Audio Coding 3
    Расширение режима : CM (complete main)
    Параметр Endianness формата : Big
    Идентификатор кодека : 2000
    Продолжительность : 1 ч. 12 м.
    Вид битрейта : Постоянный
    Битрейт : 384 Кбит/сек
    Каналы : 6 каналов
    Расположение каналов : Front: L C R, Side: L R, LFE
    Частота : 48, 0 КГц
    Битовая глубина : 16 бит
    Метод сжатия : С потерями
    Задержка видео : 602 мс.
    Размер потока : 199 Мбайт (13%)
    Выравнивание : Разделение по промежуткам
    Продолжительность промежутка : 40 мс. (1, 00 видеокадр)
    Время предзагрузки промежутка : 500 мс

    Скриншоты



    Залил: AVPStudio

    Онлайн видео Один и без оружия (1984) DVDRip от New


    Размер скачиваемого торрента: 1.46 GB (1564430336 Bytes)

    Один и без оружия (1984) DVDRip от New-Team
    загрузка...
    Рейтинг →
     (голосов: 1, оценка 3/5, голосовать можно 1 раз )

    Другие торренты по теме:

  • Один дома. Дилогия / Home Alone. Dilogy (1990-1992) BDRemux 1080p от Filmrus торрент скачать бесплатно
  • Один прекрасный день / A Perfect Day (2006) DVDRip | P торрент скачать бесплатно
  • Один дома 2: Затерянный в Нью-Йорке / Home Alone 2: Lost in New York (1992) BDRip | D торрент скачать бесплатно
  • Один дома 5: Один в темноте / Home Alone: The Holiday Heist (2012) HDTVRip 720p | L1 торрент скачать бесплатно
  • Ты не один (2013) HDTV 1080i торрент скачать бесплатно
  • Ты не один (2013) HDTVRip от Getty торрент скачать бесплатно
  • Ты не один (2013) HDTVRip 720p торрент скачать бесплатно
  • Один против всех (эфир 31.12.2012) IPTVRip торрент скачать бесплатно


    • Комментарии (0):

      Информация

      Информация

        Посетители, находящиеся в группе Гости, не могут оставлять комментарии в данной новости.

        ↓ Меню



        ↓ Опрос

        А Вы добавили сайт в закладки?
        Да
        Не


        Top 10 за неделю (Фильмы)