.
Авторизация | Регистрация
Хочешь лучшие торренты? Добавь свой email!
Добавить
» » Твои, мои и наши / Yours, Mine and Ours (2005) WEB-DL 720p | D, A торрент скачать бесплатно




    Твои, мои и наши / Yours, Mine and Ours (2005) WEB-DL 720p | D, A торрент скачать бесплатно

    Опубликовал: Админ | Дата: 5-07-2015, 05:09 | Просмотров: 89



    Детально о кино
    Русское название: Твои, мои и наши
    Русское название в мировом прокате: Yours, Mine Ours
    Создали в: 2005
    Категория жанра: комедия, мелодрама, семейный
    Главный режиссер: Раджа Госнелл/Raja Gosnell/

    Актеры
    Деннис Куэйд/Dennis Quaid/ , Рене Руссо/Rene Russo/ , Шон Фэрис/Sean Faris/ , Катя Певек/Katija Pevec/ , Дин Коллинз/Dean Collins/ , Даниэль Панабэйкер/Danielle Panabaker/ , Дрейк Белл/Drake Bell/ , Мики Исикава/Miki Ishikawa/ , Рип Торн/Rip Torn/ , Линда Хант/Linda Hunt/ и др.

    Сюжет фильма

    Овдовевший адмирал береговой охраны встречает женщину своей мечты, недавно потерявшую мужа. Два уже немолодых человека полюбили друг друга и решили пожениться.
    А что делать — любящие люди должны жить вместе, даже если у него восемь детей, а у неё их десять. И пока дети сражаются друг с другом за территорию, их родители проходят проверку на крепость чувств…

    Снималось в: США
    Студии: Paramount Pictures/Metro-Goldwyn-Mayer (MGM)/Nickelodeon Movies/Columbia Pictures Corporation и др.
    Время просмотра: 01: 28: 03
    Перевод текста:
    Профессиональный (дублированный) -Видеосервис
    Авторский (одноголосый, закадровый) -Евгений Гранкин
    Файл
    Кодек для видео: H.264
    Качество фильма: WEB-DL 720p
    Информация о видео: 1280x542 at 23.976 fps, MPEG-4 AVC, ~3909 kbps avg
    Информация о звуке#1: Russian: 48 kHz, AC3, 3/2 (L, C, R, l, r) + LFE ch, ~384.00 kbps avg |Дублированный, Видеосервис |
    Информация о звуке#2: Russian: 48 kHz, AC3, 2/0 (L, R) ch, ~192.00 kbps avg |Одноголосый закадровый, Евгений Гранкин |
    Информация о звуке#3: English: 48 kHz, AC3, 3/2 (L, C, R, l, r) + LFE ch, ~384.00 kbps avg |Оригинал|
    Субтитры: Russian (Full), English (Full)
    Скриншоты

    MediaInfo
    General
    Complete name : Yours.Mine.and.Ours.2005.720p.WEB-DL.2xRus.Eng.mkv
    Format : Matroska
    Format version : Version 4/Version 2
    File size : 3.06 GiB
    Duration : 1h 28mn
    Overall bit rate : 4 968 Kbps
    Movie name : Yours, Mine Ours (2005)
    Encoded date : UTC 2015-07-04 15: 23: 11
    Writing application : mkvmerge v8.1.0 (;Psychedelic Postcard;) 64bit
    Writing library : libebml v1.3.1 + libmatroska v1.4.2
    Video
    ID : 1
    Format : AVC
    Format/Info : Advanced Video Codec
    Format profile : Main@L3.1
    Format settings, CABAC : No
    Format settings, ReFrames : 2 frames
    Codec ID : V_MPEG4/ISO/AVC
    Duration : 1h 28mn
    Bit rate : 3 909 Kbps
    Width : 1 280 pixels
    Height : 542 pixels
    Display aspect ratio : 2.35: 1
    Frame rate mode : Constant
    Frame rate : 23.976 fps
    Color space : YUV
    Chroma subsampling : 4: 2: 0
    Bit depth : 8 bits
    Scan type : Progressive
    Bits/(Pixel*Frame) : 0.235
    Stream size : 2.40 GiB (79%)
    Title : Yours, Mine Ours (2005)
    Language : English
    Default : Yes
    Forced : No
    Color range : Limited
    Color primaries : BT.709
    Transfer characteristics : BT.709
    Matrix coefficients : BT.709
    Audio #1
    ID : 2
    Format : AC-3
    Format/Info : Audio Coding 3
    Mode extension : CM (complete main)
    Format settings, Endianness : Big
    Codec ID : A_AC3
    Duration : 1h 28mn
    Bit rate mode : Constant
    Bit rate : 384 Kbps
    Channel(s) : 6 channels
    Channel positions : Front: L C R, Side: L R, LFE
    Sampling rate : 48.0 KHz
    Compression mode : Lossy
    Stream size : 242 MiB (8%)
    Title : AC3 5.1 ch @ 384 kbps - DUB (Видеосервис)
    Language : Russian
    Default : Yes
    Forced : No
    Audio #2
    ID : 3
    Format : AC-3
    Format/Info : Audio Coding 3
    Mode extension : CM (complete main)
    Format settings, Endianness : Big
    Codec ID : A_AC3
    Duration : 1h 28mn
    Bit rate mode : Constant
    Bit rate : 192 Kbps
    Channel(s) : 2 channels
    Channel positions : Front: L R
    Sampling rate : 48.0 KHz
    Compression mode : Lossy
    Stream size : 121 MiB (4%)
    Title : AC3 2.0 ch @ 192 kbps - AVO (Е. Гранкин)
    Language : Russian
    Default : No
    Forced : No
    Audio #3
    ID : 4
    Format : AC-3
    Format/Info : Audio Coding 3
    Mode extension : CM (complete main)
    Format settings, Endianness : Big
    Codec ID : A_AC3
    Duration : 1h 28mn
    Bit rate mode : Constant
    Bit rate : 384 Kbps
    Channel(s) : 6 channels
    Channel positions : Front: L C R, Side: L R, LFE
    Sampling rate : 48.0 KHz
    Compression mode : Lossy
    Stream size : 242 MiB (8%)
    Title : AC3 5.1 ch @ 384 kbps
    Language : English
    Default : No
    Forced : No
    Text #1
    ID : 5
    Format : UTF-8
    Codec ID : S_TEXT/UTF8
    Codec ID/Info : UTF-8 Plain Text
    Title : Full
    Language : Russian
    Default : No
    Forced : No
    Text #2
    ID : 6
    Format : UTF-8
    Codec ID : S_TEXT/UTF8
    Codec ID/Info : UTF-8 Plain Text
    Title : Full
    Language : English
    Default : No
    Forced : No
    Дополнительная информация
    Цитата Кто-тописал:
    За перевод Гранкина спасибо Tjutjkin.
    Синхронизация дорожек - Dreven.


    Онлайн видео Твои, мои и наши


    Размер скачиваемого торрента: 3.06 GB (3281097417 Bytes)

    Твои, мои и наши/Yours, Mine and Ours (2005) WEB-DL 720p | D, A
    загрузка...
    Рейтинг →
     (голосов: 1, оценка 3/5, голосовать можно 1 раз )

    Другие торренты по теме:

  • Твои, мои, наши / Yours, Mine and Ours (2005) WEB-DLRip | Лицензия
  • Твои, мои и наши / Yours, Mine Ours (2005) HDRip | D, A


    • Комментарии (0):

      Информация

      Информация

        Посетители, находящиеся в группе Гости, не могут оставлять комментарии в данной новости.

        ↓ Меню



        ↓ Опрос

        А Вы добавили сайт в закладки?
        Да
        Не


        Top 10 за месяц (Фильмы)