.
Авторизация | Регистрация
» » Снайпер: Герой сопротивления (2015) WEB-DLRip-AVC | iTunes скачать торрент бесплатно




    Снайпер: Герой сопротивления (2015) WEB-DLRip-AVC | iTunes скачать торрент бесплатно

    Опубликовал: Админ | Дата: 6-07-2015, 05:04 | Просмотров: 109



    Детально о кино
    Русское название в мировом прокате: Снайпер: Герой сопротивления/Снайпер: Последний выстрел
    Создали в: 2015
    Категория жанра: Военный, драма, приключения
    Снималось в: Россия, ООО Нью Арт Синема Продакшн
    Главный режиссер: Арман Геворгян

    Актеры
    Гоша Куценко, Денис Бургазлиев, Анна Снаткина, Владимир Гостюхин, Борис Романов, Дирк Мартенс, Юлия Кадушкевич, Георгий Сивохин, Сергей Широчин, Олег Вебер

    Сюжет фильма

    Тяжелый 1941-й год. Немецкие войска продолжают наступление, сжигая целые города и села, оставляя после себя руины и пепелища. Кажется, уже ничто не спасет Советский Союз от поражения, а Красную Армию - от тотального уничтожения оккупантами. В эпицентре этих трагических событий оказываются идейные враги - красноармеец, снайпер Николай Волохов и сын белого офицера Андре Ренье. В других обстоятельствах они могли бы оказаться по разные стороны баррикад - ведь отца Волохова убил белогвардейский офицер. Но сейчас им нечего делить. У них один враг - немцы...

    Файл
    Качество фильма: WEB-DLRip-AVC
    Информация о видео: MPEG-4 AVC, ~1500 Кбит/с, 972х404
    Информация о звуке: АС3, 2 ch, 192 Кбит/с
    Время просмотра: 01: 20: 40
    Язык: Русский

    M/I
    General
    Unique ID: 220908081028128235555233244910481805505 (0xA631594C53E8FC4A898AA0F2059B90C1)
    Complete name : F: Snajper.Geroj.soprotivlenija.2015.O.WEBDLRIP_AVC.-=DoMiNo=-.mkv
    Format: Matroska
    Format version: Version 4/Version 2
    File size: 992 MiB
    Duration: 1h 20mn
    Overall bit rate: 1 719 Kbps
    Writing application: XviD4PSP 7.0.148
    Writing library: Lavf56.25.101
    ENCODING_INFO: MATROSKA, WEBM MKV 720p/H264 X264 CRF 17, 0 Custom/AC3 COPY
    Video
    ID: 1
    Format: AVC
    Format/Info: Advanced Video Codec
    Format profile: High@L4.1
    Format settings, CABAC: Yes
    Format settings, ReFrames: 12 frames
    Codec ID: V_MPEG4/ISO/AVC
    Duration: 1h 20mn
    Bit rate: 1 492 Kbps
    Width: 972 pixels
    Height: 404 pixels
    Display aspect ratio: 2.40: 1
    Original display aspect rat: 2.40: 1
    Frame rate mode: Constant
    Frame rate: 25.000 fps
    Color space: YUV
    Chroma subsampling: 4: 2: 0
    Bit depth: 8 bits
    Scan type: Progressive
    Bits/(Pixel*Frame): 0.152
    Stream size: 861 MiB (87%)
    Writing library: x264 core 146 r2538M 121396c
    Encoding settings: cabac=1/ref=12/deblock=1: -3: -3/analyse=0x3: 0x133/me=umh/subme=10/psy=1/psy_rd=1, 00: 0, 10/mixed_ref=1/me_range=32/chroma_me=1/trellis=2/8x8dct=1/cqm=0/deadzone=21, 11/fast_pskip=0/chroma_qp_offset=-3/threads=12/lookahead_threads=3/sliced_threads=0/nr=0/decimate=1/interlaced=0/bluray_compat=0/constrained_intra=0/bframes=11/b_pyramid=2/b_adapt=2/b_bias=0/direct=1/weightb=1/open_gop=0/weightp=2/keyint=250/keyint_min=25/scenecut=40/intra_refresh=0/rc=crf/mbtree=0/crf=17, 0/qcomp=0, 60/qpmin=17/qpmax=69/qpstep=4/ip_ratio=1, 40/pb_ratio=1, 30/aq=1: 1, 00
    Language: English
    Default: Yes
    Forced: No
    Color range: Limited
    Color primaries: BT.709
    Transfer characteristics: BT.709
    Matrix coefficients: BT.709
    Audio
    ID: 2
    Format: AC-3
    Format/Info: Audio Coding 3
    Mode extension: CM (complete main)
    Format settings, Endianness: Big
    Codec ID: A_AC3
    Duration: 1h 20mn
    Bit rate mode: Constant
    Bit rate: 192 Kbps
    Channel(s): 2 channels
    Channel positions: Front: L R
    Sampling rate: 48.0 KHz
    Bit depth: 32 bits
    Compression mode: Lossy
    Stream size: 111 MiB (11%)
    Language: Russian
    Default: Yes
    Forced: Yes
    Menu
    00: 00: 00.000 : : Р“Рава 1
    00: 04: 16.000 : : Р“Рава 2
    00: 13: 22.000 : : Р“Рава 3
    00: 19: 16.000 : : Р“Рава 4
    00: 22: 23.000 : : Р“Рава 5
    00: 27: 55.000 : : Р“Рава 6
    00: 32: 37.000 : : Р“Рава 7
    00: 37: 15.000 : : Р“Рава 8
    00: 41: 12.000 : : Р“Рава 9
    00: 46: 55.000 : : Р“Рава 10
    00: 52: 38.000 : : Р“Рава 11
    00: 57: 22.000 : : Р“Рава 12
    01: 03: 08.000 : : Р“Рава 13
    01: 07: 16.000 : : Р“Рава 14
    01: 11: 14.000 : : Р“Рава 15
    01: 15: 01.000 : : Р“Рава 16



    Онлайн видео Снайпер: Герой сопротивления (2015) WEB-DLRip-AVC


    Размер скачиваемого торрента: 991.74 MB (1039910570 Bytes)

    Снайпер: Герой сопротивления (2015) WEB-DLRip-AVC | iTunes
    загрузка...
    Рейтинг →
     (голосов: 1, оценка 3/5, голосовать можно 1 раз )

    Другие торренты по теме:

  • Снайпер: Герой сопротивления (2015) WEB-DLRip от MAGNAT231 | КПК скачать торрент бесплатно
  • Снайпер: Герой сопротивления (2015) WEB-DLRip от MegaPeer | iTunes скачать торрент бесплатно
  • Снайпер: Герой сопротивления (2015) WEB-DL 720p | iTunes скачать торрент бесплатно
  • Снайпер: Герой сопротивления (2015) WEB-DLRip от MegaPeer | iTunes скачать торрент бесплатно
  • Снайпер: Герой сопротивления / Снайпер: Последний выстрел (2015) HDTVRip-AVC от New-Team скачать торрент бесплатно
  • Снайпер: Герой сопротивления (Снайпер: Последний выстрел) / 2015 / РУ / HDTV (1080i) скачать торрент бесплатно


    • Комментарии (0):

      Информация

      Информация

        Посетители, находящиеся в группе Гости, не могут оставлять комментарии в данной новости.

        ↓ Меню



        ↓ Опрос

        А Вы добавили сайт в закладки?
        Да
        Не


        Top 10 за неделю (Фильмы)