.
Авторизация | Регистрация
» » Момент безрассудства / The Reckless Momenty (1949) DVDRip | L1 скачать торрент бесплатно




    Момент безрассудства / The Reckless Momenty (1949) DVDRip | L1 скачать торрент бесплатно

    Опубликовал: Админ | Дата: 7-07-2015, 05:09 | Просмотров: 77



    Детально о кино
    Русское название: Момент безрассудства
    Русское название в мировом прокате: The Reckless Momenty
    Создали в: 1949
    Категория жанра: фильм-нуар, драма
    Главный режиссер: Макс Офюльс

    Актеры
    Джеймс Мейсон, Джоан Беннетт, Джеральдин Брукс, Генри О’Нилл, Шепперд Страдвик, Дэвид Баир, Рой Робертс, Уильям Шэллерт, Энн Шоумэйкер, Билли Снайдер, Джесси Арнольд, Джек Бэйкер, Пэт Бартон

    Сюжет фильма

    Домохозяйка Люсия Харпер обнаруживает труп мужчины, с которым встречалась ее дочь. Люсия убеждена, что это её дочь по неосторожности убила своего бывшего возлюбленного. Она не знает, что предпринять и всячески старается спрятать труп, чтобы избежать скандала. Возмездие является в лице ирландца-подонка Мартина Доннелли, который собирается ее шантажировать, но неожиданно влюбляется и делает попытки сближения...

    Снималось в: США
    Время просмотра: 01: 18: 41
    Перевод текста: Любительский (одноголосый, закадровый)
    Файл
    Кодек для видео: XviD
    Качество фильма: DVDRip | L1
    Информация о видео: 528x400 (4: 3), 23.976 fps, 1102 Kbps
    Информация о звуке 1: MP3, 48.0 KHz, 2 ch., 128 Kbps (русский одноголосый закадровый перевод) - Юрий Медведев
    Информация о звуке 2: MP3, 48.0 KHz, 2 ch., 128 Kbps (оригинальная английская звуковая дорожка, лежит отдельно)
    Семпл
    Media Info
    AVI-файл:
    Общее
    Полное имя : K: раздачиThe Reckless Moment 1949 700MBThe Reckless Moment.avi
    Формат : AVI
    Формат/Информация : Audio Video Interleave
    Размер файла : 698 Мбайт
    Продолжительность : 1 ч. 18 м.
    Общий поток : 1240 Кбит/сек
    Программа кодирования : VirtualDubMod 1.5.10.3 | www.virtualdub-fr.org || (build 2550/release)
    Библиотека кодирования : VirtualDubMod build 2550/release
    Видео
    Идентификатор : 0
    Формат : MPEG-4 Visual
    Профиль формата : Advanced Simple@L5
    Параметр BVOP формата : 2
    Параметр QPel формата : Нет
    Параметр GMC формата : Без точки перехода
    Параметр матрицы формата : Default (H.263)
    Идентификатор кодека : DX50
    Идентификатор кодека/Подсказка : DivX 5
    Продолжительность : 1 ч. 18 м.
    Битрейт : 1102 Кбит/сек
    Ширина : 528 пикселей
    Высота : 400 пикселей
    Соотношение сторон : 4: 3
    Частота кадров : 25, 000 кадров/сек
    Цветовое пространство : YUV
    Субдискретизация насыщенности : 4: 2: 0
    Битовая глубина : 8 бит
    Тип развёртки : Прогрессивная
    Метод сжатия : С потерями
    Бит/(Пиксели*Кадры) : 0.209
    Размер потока : 620 Мбайт (89%)
    Библиотека кодирования : XviD 73
    Аудио
    Идентификатор : 1
    Формат : MPEG Audio
    Версия формата : Version 1
    Профиль формата : Layer 3
    Идентификатор кодека : 55
    Идентификатор кодека/Подсказка : MP3
    Продолжительность : 1 ч. 18 м.
    Вид битрейта : Постоянный
    Битрейт : 128 Кбит/сек
    Каналы : 2 канала
    Частота : 48, 0 КГц
    Метод сжатия : С потерями
    Размер потока : 72, 0 Мбайт (10%)
    Выравнивание : Соединение по промежуткам
    Продолжительность промежутка : 40 мс. (1, 00 видеокадр)
    Время предзагрузки промежутка : 504 мс.
    Библиотека кодирования : LAME3.99r
    Залил: gigauri

    Онлайн видео Момент безрассудства


    Размер скачиваемого торрента: 769.60 MB (806984960 Bytes)


    Момент безрассудства/The Reckless Momenty (1949) DVDRip | L1
    загрузка...
    Рейтинг →
     (голосов: 1, оценка 5/5, голосовать можно 1 раз )

    Другие торренты по теме:

  • Luxor - Моменты (2011) MP3 от b-kpo торрент скачать бесплатно
  • Экахарт Толле - Сила момента Сейчас (2009) DOC торрент скачать бесплатно
  • Смерть шпионам: Момент истины (2008) PC | Лицензия торрент скачать бесплатно
  • Момент Истины (2013) SATRip торрент скачать бесплатно
  • Угрызения 2: В(л)ажные моменты / Eating Out 2: Sloppy Seconds (2006) DVDRip | Sub торрент скачать бесплатно
  • Владимир Богомолов - Момент истины (2011) MP3 торрент скачать бесплатно
  • Поворотная точка 2 / Переломный момент 2: Черное и белое / Laughing Gor - Qian Zui Fan / Turning point 2 (2011) BDRip AVC от MediaClub торрент скачать бесплатно
  • Избранные моменты оперных и балетных спектаклей / The Blu-Ray Experience: Opera Ballet Highlights (2008) BDRip-AVC от RG Jolly Roger торрент скачать бесплатно


    • Комментарии (0):

      Информация

      Информация

        Посетители, находящиеся в группе Гости, не могут оставлять комментарии в данной новости.

        ↓ Меню



        ↓ Опрос

        А Вы добавили сайт в закладки?
        Да
        Не


        Top 10 за неделю (Фильмы)