.
Авторизация | Регистрация
» » Терминатор 2: Судный День / Terminator 2: Judgment Day (1991) HDRip | А | Skynet Edition скачать торрент бесплатно




    Терминатор 2: Судный День / Terminator 2: Judgment Day (1991) HDRip | А | Skynet Edition скачать торрент бесплатно

    Опубликовал: Админ | Дата: 7-07-2015, 05:09 | Просмотров: 205




    Создали в: США, Франция/Carolco Pictures, Pacific Western, Lightstorm Entertainment
    Категория жанра: Боевик, Фантастика
    Время просмотра: 02: 36: 08
    Перевод текста: Авторский (одноголосый, закадровый)В.Дохалов (вставки на расширенные моменты многоголосый закадровый Позитив-Мультимедиа)
    Субтитры: отсутствуют
    Главный режиссер: Джеймс Кэмерон
    Актеры: Арнольд Шварценеггер, Линда Хэмилтон, Эдвард Ферлонг, Роберт Патрик, Эрл Боэн, Джо Мортон, С. Эпата Меркерсон, Кастуло Герра, Дэнни Кукси, Дженетт Голдстин

    Описание фильма

    Война роботов и людей продолжается. Казалось, что человечество обречено на полное уничтожение. Но благодаря своему лидеру Джону Коннору у сопротивления появляется шанс победить. Не имея возможности убить Джона в реальном времени, роботы отправляют в прошлое свою самую совершенную разработку - терминатора-убийцу из жидкого металла, способного принимать любое обличье.
    Теперь, чтобы победить в будущем, юному Джону Коннору надо выжить в настоящем. Его шансы существенно повышаются, когда на помощь приходит перепрограммированный сопротивлением терминатор предыдущего поколения. Оба робота вступают в смертельный бой, от исхода которого зависит судьба человечества.

    Качество фильма: HDRip
    Информация о видео: Xvid, 656x280 (2.35: 1), 23.976 fps, ~1 137 Kbps (0.258 bit/pixel)
    Информация о звуке: AC3, 2 ch, 192 Kbps, CBR
    Mediainfo:

    Формат : AVI
    Формат/Информация : Audio Video Interleave
    Размер файла : 1, 46 Гбайт
    Продолжительность : 2 ч. 36 м.
    Общий поток : 1338 Кбит/сек
    Программа кодирования : VirtualDubMod 1.5.10.3 | www.virtualdub-fr.org || (build 2550/release)
    Библиотека кодирования : VirtualDubMod build 2550/release
    Видео
    Идентификатор : 0
    Формат : MPEG-4 Visual
    Профиль формата : Advanced Simple@L5
    Параметр BVOP формата : 2
    Параметр QPel формата : Нет
    Параметр GMC формата : Без точки перехода
    Параметр матрицы формата : Выборочная
    Идентификатор кодека : XVID
    Идентификатор кодека/Подсказка : XviD
    Продолжительность : 2 ч. 36 м.
    Битрейт : 1137 Кбит/сек
    Ширина : 656 пикселей
    Высота : 280 пикселей
    Соотношение сторон : 2, 35: 1
    Частота кадров : 23, 976 кадра/сек
    Цветовое пространство : YUV
    Субдискретизация насыщенности : 4: 2: 0
    Битовая глубина : 8 бит
    Тип развёртки : Прогрессивная
    Метод сжатия : С потерями
    Бит/(Пиксели*Кадры) : 0.258
    Размер потока : 1, 24 Гбайт (85%)
    Библиотека кодирования : XviD 73
    Аудио
    Идентификатор : 1
    Формат : AC-3
    Формат/Информация : Audio Coding 3
    Расширение режима : CM (complete main)
    Параметр Endianness формата : Big
    Идентификатор кодека : 2000
    Продолжительность : 2 ч. 36 м.
    Вид битрейта : Постоянный
    Битрейт : 192 Кбит/сек
    Каналы : 2 канала
    Расположение каналов : Front: L R
    Частота : 48, 0 КГц
    Битовая глубина : 16 бит
    Метод сжатия : С потерями
    Размер потока : 214 Мбайт (14%)
    Выравнивание : Разделение по промежуткам
    Продолжительность промежутка : 42 мс. (1, 00 видеокадр)
    Время предзагрузки промежутка : 500 мс.
    Скриншоты





    Онлайн видео Терминатор 2: Судный День


    Размер скачиваемого торрента: 1.46 GB (1567014912 Bytes)

    Терминатор 2: Судный День/Terminator 2: Judgment Day (1991) HDRip | А | Skynet Edition
    загрузка...
    Рейтинг →
     (голосов: 1, оценка 5/5, голосовать можно 1 раз )

    Другие торренты по теме:

  • Терминатор: Да придёт спаситель / Terminator Salvation (2009) HDRip от Scarabey | D | Театральная версия торрент скачать бесплатно
  • OST - Терминатор / Terminator Soundtrack Quintus (1984-2009) MP3 торрент скачать бесплатно
  • Терминатор 3: Восстание машин / Terminator 3: Rise of the Machines (2003) BD-Remux торрент скачать бесплатно
  • Терминатор 2: Судный день / Terminator 2: Judgment Day (1991) Blu-Ray торрент скачать бесплатно
  • Терминатор 2: Два брата терминавта или день подводника / Terminator 2: Judgment Day (1991) HDRip торрент скачать бесплатно
  • Терминатор: Квадрология / Terminator: Quadrilogy (1984-2009) HDRip | КПК от R.G. Mobile-Men | D, P торрент скачать бесплатно
  • Терминатор: Квадрология / The Terminator: Quadrilogy (1984-2009) HDRip-AVC от WazZzup торрент скачать бесплатно
  • Терминатор 2: Судный день / Terminator 2: Judgment Day (1991) BDRip 1080p | Специальная расширенная версия торрент скачать бесплатно


    • Комментарии (0):

      Информация

      Информация

        Посетители, находящиеся в группе Гости, не могут оставлять комментарии в данной новости.

        ↓ Меню



        ↓ Опрос

        А Вы добавили сайт в закладки?
        Да
        Не


        Top 10 за неделю (Фильмы)