.
Авторизация | Регистрация
Хочешь лучшие торренты? Добавь свой email!
Добавить
» » Смертельная река / Massacre River (1949) DVDRip L2 торрент скачать бесплатно




    Смертельная река / Massacre River (1949) DVDRip L2 торрент скачать бесплатно

    Опубликовал: Админ | Дата: 8-07-2015, 05:00 | Просмотров: 161



    Детально о кино
    Русское название: Смертельная река
    Русское название в мировом прокате: Massacre River
    Создали в: 1949
    Категория жанра: Вестерн
    Главный режиссер: Джон Роулинз

    Актеры
    Гай Мэдисон, Рори Кэлхун, Кэрол Мэтьюз, Айрон Айс Коудии, Кэти Даунс, Джонни Сэндс, Стив Броди, Арт Бэйкер и др...

    Сюжет фильма
    Фильм рассказывает о временах, когда земли Дикого Запада были поделены на две части: индейская территория и земля белых поселенцев. Главными героями являются два лейтенанта кавалерии США - Ларри Найт (Гай Мэдисон) и Фил Актон (Рори Кэлхун) - соперничающие за руку и сердце дочки начальника форта. Внезапно треугольник разрывает вторая девушка - сметливая хозяйка салуна Лора. Закипают страсти, заканчивающиеся фатальными выстрелами на индейской территории.

    Снималось в: США
    Время просмотра: 01: 17: 57
    Перевод текста: Любительский (двухголосый закадровый)
    Файл
    Кодек для видео: XviD
    Качество фильма: DVDRip
    Информация о видео: 720x544 (4: 3), 25.000 fps, 1975 kbps
    Информация о звуке:
    Информация о звуке rus: MP3, 48 KHz, 2 ch, 192 kbps, CBR
    Информация о звуке eng: MP3, 48 KHz, 2 ch, 192 kbps, CBR
    Семпл
    Доп. информация

    Перевод: Свен Железнов
    Роли озвучивали: Никита Кирдин и Чулпан Сафина
    Монтаж звука и и сборка ДВД: Rhjn_Rhjn .
    Фильм переведен и озвучен специально для 7букв Вестерн группы Джесси Джеймса.

    Инфо-файл

    Общее
    Полное имя : F: FilmsMassacre.River.1949Massacre.River.1949.DVDRip.avi
    Формат : AVI
    Формат/Информация : Audio Video Interleave
    Размер файла : 1, 29 Гбайт
    Продолжительность : 1 ч. 17 м.
    Общий поток : 2373 Кбит/сек
    Программа кодирования : VirtualDubMod 1.5.10.3 (build 2550/release)
    Библиотека кодирования : VirtualDubMod build 2550/release
    Видео
    Идентификатор : 0
    Формат : MPEG-4 Visual
    Профиль формата : Advanced Simple@L5
    Параметр BVOP формата : 1
    Параметр QPel формата : Нет
    Параметр GMC формата : Без точки перехода
    Параметр матрицы формата : Выборочная
    Идентификатор кодека : XVID
    Идентификатор кодека/Подсказка : XviD
    Продолжительность : 1 ч. 17 м.
    Битрейт : 1975 Кбит/сек
    Ширина : 720 пикселей
    Высота : 544 пикселя
    Соотношение сторон : 4: 3
    Частота кадров : 25, 000 кадров/сек
    Цветовое пространство : YUV
    Субдискретизация насыщенности : 4: 2: 0
    Битовая глубина : 8 бит
    Тип развёртки : Прогрессивная
    Метод сжатия : С потерями
    Бит/(Пиксели*Кадры) : 0.202
    Размер потока : 1, 08 Гбайт (83%)
    Библиотека кодирования : XviD 73
    Аудио #1
    Идентификатор : 1
    Формат : MPEG Audio
    Версия формата : Version 1
    Профиль формата : Layer 3
    Режим : Joint stereo
    Расширение режима : MS Stereo
    Идентификатор кодека : 55
    Идентификатор кодека/Подсказка : MP3
    Продолжительность : 1 ч. 17 м.
    Вид битрейта : Постоянный
    Битрейт : 192 Кбит/сек
    Каналы : 2 канала
    Частота : 48, 0 КГц
    Метод сжатия : С потерями
    Размер потока : 107 Мбайт (8%)
    Выравнивание : Соединение по промежуткам
    Продолжительность промежутка : 40 мс. (1, 00 видеокадр)
    Время предзагрузки промежутка : 504 мс.
    Библиотека кодирования : LAME3.98r
    Залил: skyn s61

    Онлайн видео Смертельная река


    Размер скачиваемого торрента: 1.29 GB (1387456512 Bytes)


    Смертельная река/Massacre River (1949) DVDRip L2
    загрузка...
    Рейтинг →
     (голосов: 1, оценка 5/5, голосовать можно 1 раз )

    Другие торренты по теме:

  • Смертельная прогулка / Смертельная поездка / Mortelle Randonne (1983) DVD9 от Brazzass
  • Смертельная гонка 3 / Death Race 3: Inferno (2013) HDRip от RG.KikTeam
  • Смертельная битва: Дилогия / Mortal Kombat (1995-1997) BDRip 1080p от NoLimits-Team
  • Маскарад. Смертельная подделка (2010) PC | Repack от R.G. UPG
  • Смертельная гонка 3: Ад / Death Race: Inferno (2013) BDRipот HQCLUB | Лицензия | UNRATED
  • Смертельная битва / Mortal Kombat (1995) BDRip | P
  • Джефф Ровин - Смертельная битва / Mortal Kombat (1998) FB2
  • Смертельная осада / Wu Lin sheng dou shi / Deadend of Besiegers (1992) DVDRip


    • Комментарии (0):

      Информация

      Информация

        Посетители, находящиеся в группе Гости, не могут оставлять комментарии в данной новости.

        ↓ Меню



        ↓ Опрос

        А Вы добавили сайт в закладки?
        Да
        Не


        Top 10 за месяц (Фильмы)