.
Авторизация | Регистрация
» » Шпионский мост / Bridge of Spies (2015) WEBRip 1080p | Трейлер скачать торрент бесплатно




    Шпионский мост / Bridge of Spies (2015) WEBRip 1080p | Трейлер скачать торрент бесплатно

    Опубликовал: Админ | Дата: 10-07-2015, 05:01 | Просмотров: 484



    Создали в: 2015
    Создали в: США
    Категория жанра: триллер, драма
    Главный режиссер: Стивен Спилберг
    Продюсеры: Кристи Макоско Кригер, Марк Э. Платт, Стивен Спилберг
    Актеры: Том Хэнкс, Алан Алда, Эми Райан, Остин Стоуэлл, Билли Магнуссен, Ив Хьюсон, Марк Райлэнс, Доменик Ломбардоззи, Себастьян Кох, Майкл Гэстон
    Описание фильма:
    Действие фильма происходит на фоне серии реальных исторических событий и рассказывает о бруклинском адвокате Джеймсе Доноване, который оказывается в эпицентре холодной войны, когда ЦРУ отправляет его на практически невозможное задание — договориться об освобождении захваченного в СССР американского пилота самолета-разведчика U2.
    Дата мировой премьеры: 15 октября 2015
    Дата российской премьеры: 22 октября 2015

    Время просмотра: 00: 03: 02
    Качество фильма видео: WEBRip 1080p
    Информация о видеокодек: MPEG-4 AVC/H.264
    Битрейт видео: 2294 Кбит/сек
    Размер скачиваемого торрента кадра: 1920x1080
    Информация о звукекодек: AAC
    Битрейт аудио: 126 Кбит/сек
    MediaInfo:

    Общее
    Полное имя : Bridge-of-Spies.mp4
    Формат : MPEG-4
    Профиль формата : Base Media
    Идентификатор кодека : isom
    Размер файла : 52, 8 Мбайт
    Продолжительность : 3 м. 2 с.
    Режим общего битрейта : Переменный
    Общий поток : 2423 Кбит/сек
    Дата кодирования : UTC 2015-07-07 13: 39: 19
    Дата пометки : UTC 2015-07-07 13: 39: 19
    Программа кодирования : Lavf53.21.1
    Видео
    Идентификатор : 1
    Формат : AVC
    Формат/Информация : Advanced Video Codec
    Профиль формата : Main@L4
    Параметр CABAC формата : Да
    Параметр ReFrames формата : 3 кадра
    Идентификатор кодека : avc1
    Идентификатор кодека/Информация : Advanced Video Coding
    Продолжительность : 3 м. 2 с.
    Битрейт : 2294 Кбит/сек
    Ширина : 1920 пикселей
    Высота : 1080 пикселей
    Соотношение сторон : 16: 9
    Режим частоты кадров : Постоянный
    Частота кадров : 23, 976 кадра/сек
    Цветовое пространство : YUV
    Субдискретизация насыщенности : 4: 2: 0
    Битовая глубина : 8 бит
    Тип развёртки : Прогрессивная
    Бит/(Пиксели*Кадры) : 0.046
    Размер потока : 49, 9 Мбайт (95%)
    Библиотека кодирования : x264 core 120 r2151 a3f4407
    Дата кодирования : UTC 2015-07-07 13: 39: 19
    Дата пометки : UTC 2015-07-07 13: 39: 19
    Аудио
    Идентификатор : 2
    Формат : AAC
    Формат/Информация : Advanced Audio Codec
    Профиль формата : LC
    Идентификатор кодека : 40
    Продолжительность : 3 м. 2 с.
    Вид битрейта : Переменный
    Битрейт : 126 Кбит/сек
    Каналы : 2 канала
    Расположение каналов : Front: L R
    Частота : 44, 1 КГц
    Метод сжатия : С потерями
    Размер потока : 2, 74 Мбайт (5%)
    Дата кодирования : UTC 2015-07-07 13: 39: 19
    Дата пометки : UTC 2015-07-07 13: 39: 19

    Скриншоты



    Скриншоты



    Залил: Jokerzv

    Онлайн видео Шпионский мост


    Размер скачиваемого торрента: 52.79 MB (55358214 Bytes)

    Шпионский мост/Bridge of Spies (2015) WEBRip 1080p | Трейлер
    загрузка...
    Рейтинг →
     (голосов: 1, оценка 3/5, голосовать можно 1 раз )

    Другие торренты по теме:

  • Шпионский мост (2015) качество DVDRip скачать торрент бесплатно
  • Шпионский мост / Bridge of Spies (2015) CAMRip скачать торрент бесплатно
  • Шпионский мост / Bridge of Spies (2015) WEBRip | Звук c CAMRip скачать торрент бесплатно
  • Шпионский мост / Bridge of Spies (2015) BDRip-AVC | Чистый звук скачать торрент бесплатно
  • Шпионский мост / Bridge of Spies (2015) BDRip-AVC от HELLYWOOD | iTunes скачать торрент бесплатно
  • Шпионский мост / Bridge of Spies (2015) BDRip от Twi7ter | iTunes скачать торрент бесплатно
  • Шпионский мост / Bridge of Spies (2015) ВDRip от ExKinoRay | Лицензия скачать торрент бесплатно
  • Шпионский мост (2015) скачать торрент бесплатно


    • Комментарии (0):

      Информация

      Информация

        Посетители, находящиеся в группе Гости, не могут оставлять комментарии в данной новости.

        ↓ Меню



        ↓ Опрос

        А Вы добавили сайт в закладки?
        Да
        Не


        Top 10 за неделю (Фильмы)