.
Авторизация | Регистрация
Хочешь лучшие торренты? Добавь свой email!
Добавить
» » Крепись! / Get Hard (2015) HDRip-AVC | UNRATED | Яроцкий торрент скачать бесплатно




    Крепись! / Get Hard (2015) HDRip-AVC | UNRATED | Яроцкий торрент скачать бесплатно

    Опубликовал: Админ | Дата: 11-07-2015, 05:01 | Просмотров: 216


    Крепись/Get Hard (2015) HDRip

    Создали в: США, Gary Sanchez Productions, Warner Bros.
    Категория жанра: Комедия
    Время просмотра: 01: 46: 44
    Перевод текста: Одноголосый закадровый, любительский
    Озвучка/Автор перевода: М.Яроцкий
    Субтитры: Английские (вшитые отключаемые)
    Главный режиссер: Этан Коэн
    Продюсер: Уилл Феррелл, Крис Хенчи, Адам МакКей
    Актеры: Уилл Феррелл, Кевин Харт, Крэйг Т. Нельсон, Элисон Бри, Эдвина Финдли, Ариана Нил, Эрик Чаварриа, Ти-Ай, Пол Бен-Виктор, Джон Майер, Джон Эйз, Нито Лариоза

    Описание фильма

    Богатый менеджер инвестиционного банка осуждён за преступление, которого он не совершал, и готовится к тюрьме. А помогает ему в этом парень, который моет его машину.


    Дата мировой премьеры: 16 марта 2015
    Дата премьеры в России: 30 июля 2015
    Дата выхода DVD/Blu-ray релиза: 30 июля 2015, CP Дистрибуция
    Качество фильма видео: HDRip-AVC
    Информация о видео: AVC, 1024x576 (16: 9), 23.976 fps, 2 022 Kbps (0.143 bit/pixel)
    Информация о звуке #1: AC-3, 48.0 KHz, 6 ch, 448 Kbps, CBR (Russian)
    Информация о звуке #2: AC-3, 48.0 KHz, 6 ch, 448 Kbps, CBR (English)
    Сэмпл
    Mediainfo:
    Формат : Matroska
    Версия формата : Version 2
    Размер файла : 2, 18 Гбайт
    Продолжительность : 1 ч. 46 м.
    Общий поток : 2919 Кбит/сек
    Дата кодирования : UTC 2015-07-10 13: 23: 13
    Программа кодирования : mkvmerge v5.3.0 (;I could have danced;) built on Feb 9 2012 10: 38: 07
    Библиотека кодирования : libebml v1.2.3 + libmatroska v1.3.0
    Attachment : Yes
    Видео
    Идентификатор : 1
    Формат : AVC
    Формат/Информация : Advanced Video Codec
    Профиль формата : High@L4.1
    Параметр CABAC формата : Да
    Параметр ReFrames формата : 10 кадров
    Идентификатор кодека : V_MPEG4/ISO/AVC
    Продолжительность : 1 ч. 46 м.
    Битрейт : 2022 Кбит/сек
    Ширина : 1024 пикселя
    Высота : 576 пикселей
    Соотношение сторон : 16: 9
    Режим частоты кадров : Постоянный
    Частота кадров : 23, 976 кадра/сек
    Цветовое пространство : YUV
    Субдискретизация насыщенности : 4: 2: 0
    Битовая глубина : 8 бит
    Тип развёртки : Прогрессивная
    Бит/(Пиксели*Кадры) : 0.143
    Размер потока : 1, 46 Гбайт (67%)
    Библиотека кодирования : x264 core 146 r2538 121396c
    Настройки программы : cabac=1/ref=10/deblock=1: -3: -3/analyse=0x3: 0x133/me=umh/subme=10/psy=1/psy_rd=1.00: 0.00/mixed_ref=1/me_range=32/chroma_me=1/trellis=2/8x8dct=1/cqm=0/deadzone=21, 11/fast_pskip=1/chroma_qp_offset=-2/threads=12/lookahead_threads=2/sliced_threads=0/nr=0/decimate=0/interlaced=0/bluray_compat=0/constrained_intra=0/bframes=8/b_pyramid=2/b_adapt=2/b_bias=0/direct=3/weightb=1/open_gop=0/weightp=2/keyint=240/keyint_min=23/scenecut=40/intra_refresh=0/rc=2pass/mbtree=0/bitrate=2022/ratetol=1.0/qcomp=0.60/qpmin=0/qpmax=69/qpstep=4/cplxblur=20.0/qblur=0.5/ip_ratio=1.40/pb_ratio=1.30/aq=1: 1.00
    Язык : English
    Default : Да
    Forced : Нет
    Аудио #1
    Идентификатор : 2
    Формат : AC-3
    Формат/Информация : Audio Coding 3
    Расширение режима : CM (complete main)
    Параметр Endianness формата : Big
    Идентификатор кодека : A_AC3
    Продолжительность : 1 ч. 46 м.
    Вид битрейта : Постоянный
    Битрейт : 448 Кбит/сек
    Каналы : 6 каналов
    Расположение каналов : Front: L C R, Side: L R, LFE
    Частота : 48, 0 КГц
    Битовая глубина : 16 бит
    Метод сжатия : С потерями
    Размер потока : 342 Мбайт (15%)
    Заголовок : Яроцкий
    Язык : Russian
    Default : Да
    Forced : Нет
    Аудио #2
    Идентификатор : 3
    Формат : AC-3
    Формат/Информация : Audio Coding 3
    Расширение режима : CM (complete main)
    Параметр Endianness формата : Big
    Идентификатор кодека : A_AC3
    Продолжительность : 1 ч. 46 м.
    Вид битрейта : Постоянный
    Битрейт : 448 Кбит/сек
    Каналы : 6 каналов
    Расположение каналов : Front: L C R, Side: L R, LFE
    Частота : 48, 0 КГц
    Битовая глубина : 16 бит
    Метод сжатия : С потерями
    Размер потока : 342 Мбайт (15%)
    Язык : English
    Default : Нет
    Forced : Нет
    Текст
    Идентификатор : 4
    Формат : UTF-8
    Идентификатор кодека : S_TEXT/UTF8
    Идентификатор кодека/Информация : UTF-8 Plain Text
    Язык : English
    Default : Нет
    Forced : Нет

    Скриншоты:

    Релиз подготовил: FAGOT100

    Онлайн видео Крепись!


    Размер скачиваемого торрента: 2.18 GB (2336211186 Bytes)

    Крепись!/Get Hard (2015) HDRip-AVC | UNRATED | Яроцкий
    загрузка...
    Рейтинг →
     (голосов: 1, оценка 4/5, голосовать можно 1 раз )

    Другие торренты по теме:

  • Крепись! / Get Hard (2015) HDRip | L1
  • Крепись! / Get Hard (2015) BDRip 1080p | L1
  • Крепись! / Get Hard (2015) HDRip | L1
  • Крепись! / Get Hard (2015) BDRip 720p | L1
  • Крепись! / Get Hard (2015) BDRip 720p | UNRATED | Яроцкий
  • Крепись! / Get Hard (2015) HDRip | iTunes
  • Крепись! / Get Hard (2015) HDRip от Fox 2015 | КПК | iTunes


    • Комментарии (0):

      Информация

      Информация

        Посетители, находящиеся в группе Гости, не могут оставлять комментарии в данной новости.

        ↓ Меню



        ↓ Опрос

        А Вы добавили сайт в закладки?
        Да
        Не


        Top 10 за месяц (Фильмы)