.
Авторизация | Регистрация
» » Комната Марвина / Marvins Room (1996) BDRip от HQ-ViDEO | P скачать торрент бесплатно




    Комната Марвина / Marvins Room (1996) BDRip от HQ-ViDEO | P скачать торрент бесплатно

    Опубликовал: Админ | Дата: 15-07-2015, 10:46 | Просмотров: 224


    Комната Марвина/Marvin;s Room (1996) BDRip
    Релиз от HQ-ViDEO

    Детально о кино
    Русское название: Комната Марвина
    Русское название в мировом прокате: Marvin;s Room
    Создали в: 1996
    Категория жанра: драма
    Главный режиссер: Джерри Закс /Jerry Zaks/

    Актеры
    Мэрил Стрип /Meryl Streep/, Дайан Китон /Diane Keaton/, Леонардо ДиКаприо /Leonardo DiCaprio/, Роберт Де Ниро /Robert De Niro/ , Хьюм Кронин /Hume Cronyn/, Гвен Вердон /Gwen Verdon/...

    Сюжет фильма

    Две сестры совершенно не похожи друг на друга. Кроткая сердечная Бесси посвятила всю себя другим. Именно она возложила на себя ответственность за семью, взяла на себя заботы о старом больном отце, а потом сама тяжело заболевает. Вспыльчивая, неуравновешенная Ли, замкнувшаяся в собственном эгоизме, потеряла контакт с семнадцатилетним сыном, отношения с которым приходится восстанавливать с большим трудом.

    Снималось в: США
    Время просмотра: 01: 38: 23
    Перевод текста: Русский профессиональный, многоголосый
    Файл
    Кодек для видео: XviD
    Качество фильма: BDRip (Source: Blu-Ray)
    Информация о видео: 1648 kbps; 0.24 bit/pixel; 704 x 400; 16: 9; 23.976 fps
    Информация о звуке: AC3 Dolby Digital; 448.00 kbps, 6 Ch
    Субтитры: Русские, Английские (2 вида).(Отдельно)
    Размер скачиваемого торрента: 1.45 Gb
    SAMPLE/скачать с Яндекс Диск
    MediaInfo
    General
    Format : AVI
    Format/Info : Audio Video Interleave
    File size : 1.45 GiB
    Duration : 1h 38mn
    Overall bit rate : 2 105 Kbps
    Writing application : VirtualDubMod 1.5.10.2 (build 2540/release)
    Writing library : VirtualDubMod build 2540/release
    Video
    ID : 0
    Format : MPEG-4 Visual
    Format profile : Advanced Simple@L5
    Format settings, BVOP : 1
    Format settings, QPel : No
    Format settings, GMC : No warppoints
    Format settings, Matrix : Custom
    Codec ID : XVID
    Codec ID/Hint : XviD
    Duration : 1h 38mn
    Bit rate : 1 648 Kbps
    Width : 704 pixels
    Height : 400 pixels
    Display aspect ratio : 16: 9
    Frame rate : 23.976 fps
    Color space : YUV
    Chroma subsampling : 4: 2: 0
    Bit depth : 8 bits
    Scan type : Progressive
    Compression mode : Lossy
    Bits/(Pixel*Frame) : 0.244
    Stream size : 1.13 GiB (78%)
    Writing library : XviD 72
    Audio
    ID : 1
    Format : AC-3
    Format/Info : Audio Coding 3
    Mode extension : CM (complete main)
    Codec ID : 2000
    Duration : 1h 38mn
    Bit rate mode : Constant
    Bit rate : 448 Kbps
    Channel(s) : 6 channels
    Channel positions : Front: L C R, Side: L R, LFE
    Sampling rate : 48.0 KHz
    Bit depth : 16 bits
    Compression mode : Lossy
    Stream size : 315 MiB (21%)
    Alignment : Split accross interleaves
    Interleave, duration : 42 ms (1.00 video frame)
    Interleave, preload duration : 500 ms





    Релиз подготовил: HQ-ViDEO
    Автор рипа: Bermud

    Онлайн видео Комната Марвина


    Размер скачиваемого торрента: 1.45 GB (1553389568 Bytes)

    Комната Марвина/Marvins Room (1996) BDRip от HQ-ViDEO | P
    загрузка...
    Рейтинг →
     (голосов: 1, оценка 5/5, голосовать можно 1 раз )

    Другие торренты по теме:

  • Комната Марвина / Marvins Room (1996) DVDRip от R.G.RealMT | P торрент скачать бесплатно
  • Комната Марвина / Marvins Room (1996) BDRip 720p от Leonardo | P2 скачать торрент бесплатно


    • Комментарии (0):

      Информация

      Информация

        Посетители, находящиеся в группе Гости, не могут оставлять комментарии в данной новости.

        ↓ Меню



        ↓ Опрос

        А Вы добавили сайт в закладки?
        Да
        Не


        Top 10 за неделю (Фильмы)