.
Авторизация | Регистрация
Хочешь лучшие торренты? Добавь свой email!
Добавить
» » Безумная / I, madman (1989) BDRip-AVC | P2 торрент скачать бесплатно




    Безумная / I, madman (1989) BDRip-AVC | P2 торрент скачать бесплатно

    Опубликовал: Админ | Дата: 16-07-2015, 05:00 | Просмотров: 166



    Детально о кино
    Русское название: Безумная (Я - безумец/Я - сумасшедший/Попасть в переплет/)
    Русское название в мировом прокате: I, madman
    Создали в: 1989
    Категория жанра: Триллер, ужасы
    Главный режиссер: Тибор Такач

    Актеры
    Дженни Райт, Клэйтон Ронер, Рэндолл Уильям Кук, Стефани Ходж, Мишель Джордан, Вэнс Валенсия, Мэри Болдуин, Раф Назарио, Боб Фрэнк, Брюс Уэгнер

    Сюжет фильма

    Молодая женщина Вирджиния захвачена чтением романа ужасов. В мыслях она отождествляет себя с героиней книги, которую преследует сгорающий от страсти маньяк. Литературный монстр неожиданно прорывается в реальный мир, совершая убийства, ранее описанные на страницах романа. И главная его цель — Вирджиния

    Снималось в: США
    Киностудия: Sarliu/Diamant
    Время просмотра: 01: 29: 14
    Перевод текста: Профессиональный двухголосый (НТВ+)
    Субтитры: английские
    Файл
    Качество фильма: BDRip-AVC
    Информация о видео: AVC/H.264/3 302 Kbps/1024x576p/23.976 fps/1.85: 1/High Profile 4.1
    Информация о звуке: Русский/AC3/2.0/192 Kbps/48, 0 КГц (DVO НТВ+)
    Релиз подготовил: batonchik (NNM-CLUB)
    MI
    Format : Matroska
    Format version : Version 4/Version 2
    File size : 2.18 GiB
    Duration : 1h 29mn
    Overall bit rate : 3 494 Kbps
    Movie name : Безумная_I, Madman.1989.BDRip.AVC.batonchik.NNM-CLUB
    Encoded date : UTC 2015-07-15 03: 32: 28
    Writing application : mkvmerge v7.7.0 (;Six Voices;) 64bit built on Feb 28 2015 23: 39: 33
    Writing library : libebml v1.3.1 + libmatroska v1.4.2
    DURATION : 01: 21: 31.468000000
    NUMBER_OF_FRAMES : 756
    NUMBER_OF_BYTES : 23715
    _STATISTICS_WRITING_APP : mkvmerge v7.7.0 (;Six Voices;) 64bit built on Feb 28 2015 23: 39: 33
    _STATISTICS_WRITING_DATE_UT : 2015-07-15 03: 32: 28
    _STATISTICS_TAGS : BPS DURATION NUMBER_OF_FRAMES NUMBER_OF_BYTES
    Video
    ID : 1
    Format : AVC
    Format/Info : Advanced Video Codec
    Format profile : High@L4.1
    Format settings, CABAC : Yes
    Format settings, ReFrames : 8 frames
    Codec ID : V_MPEG4/ISO/AVC
    Duration : 1h 29mn
    Bit rate : 3 302 Kbps
    Width : 1 024 pixels
    Height : 576 pixels
    Display aspect ratio : 16: 9
    Frame rate mode : Constant
    Frame rate : 23.976 fps
    Color space : YUV
    Chroma subsampling : 4: 2: 0
    Bit depth : 8 bits
    Scan type : Progressive
    Bits/(Pixel*Frame) : 0.233
    Stream size : 2.01 GiB (93%)
    Title : Безумная_I, Madman.1989.BDRip.AVC.batonchik.NNM-CLUB
    Writing library : x264 core 146 r2538 121396c
    Encoding settings : cabac=1/ref=8/deblock=1: -3: -3/analyse=0x3: 0x133/me=umh/subme=10/psy=1/psy_rd=1.00: 0.15/mixed_ref=1/me_range=32/chroma_me=1/trellis=2/8x8dct=1/cqm=0/deadzone=21, 11/fast_pskip=0/chroma_qp_offset=-3/threads=12/lookahead_threads=2/sliced_threads=0/nr=0/decimate=1/interlaced=0/bluray_compat=0/constrained_intra=0/bframes=8/b_pyramid=2/b_adapt=2/b_bias=0/direct=3/weightb=1/open_gop=0/weightp=2/keyint=250/keyint_min=23/scenecut=40/intra_refresh=0/rc_lookahead=40/rc=2pass/mbtree=1/bitrate=3302/ratetol=1.0/qcomp=0.60/qpmin=0/qpmax=69/qpstep=4/cplxblur=20.0/qblur=0.5/vbv_maxrate=50000/vbv_bufsize=62500/nal_hrd=none/filler=0/ip_ratio=1.40/aq=1: 1.00
    Language : English
    Default : Yes
    Forced : No
    DURATION : 01: 29: 14.224000000
    NUMBER_OF_FRAMES : 128373
    NUMBER_OF_BYTES : 2208893532
    _STATISTICS_WRITING_APP : mkvmerge v7.7.0 (;Six Voices;) 64bit built on Feb 28 2015 23: 39: 33
    _STATISTICS_WRITING_DATE_UT : 2015-07-15 03: 32: 28
    _STATISTICS_TAGS : BPS DURATION NUMBER_OF_FRAMES NUMBER_OF_BYTES
    Audio
    ID : 2
    Format : AC-3
    Format/Info : Audio Coding 3
    Mode extension : CM (complete main)
    Format settings, Endianness : Big
    Codec ID : A_AC3
    Duration : 1h 29mn
    Bit rate mode : Constant
    Bit rate : 192 Kbps
    Channel(s) : 2 channels
    Channel positions : Front: L R
    Sampling rate : 48.0 KHz
    Compression mode : Lossy
    Stream size : 123 MiB (5%)
    Title : DVO НТВ+
    Language : Russian
    Default : Yes
    Forced : No
    Text
    ID : 3
    Format : UTF-8
    Codec ID : S_TEXT/UTF8
    Codec ID/Info : UTF-8 Plain Text
    Language : English
    Default : No
    Forced : No
    Menu
    00: 00: 00.000 : en: Chapter 01
    00: 07: 12.056 : en: Chapter 02
    00: 15: 01.525 : en: Chapter 03
    00: 22: 42.361 : en: Chapter 04
    00: 29: 31.770 : en: Chapter 05
    00: 36: 40.198 : en: Chapter 06
    00: 44: 09.271 : en: Chapter 07
    00: 53: 02.804 : en: Chapter 08
    00: 59: 20.181 : en: Chapter 09
    01: 06: 43.624 : en: Chapter 10
    01: 13: 33.409 : en: Chapter 11
    01: 20: 01.797 : en: Chapter 12
    01: 29: 13.264 : en: Chapter 13
    Скриншоты


    Онлайн видео Безумная


    Размер скачиваемого торрента: 2.18 GB (2338555259 Bytes)

    Безумная/I, madman (1989) BDRip-AVC | P2
    загрузка...
    Рейтинг →
     (голосов: 1, оценка 5/5, голосовать можно 1 раз )

    Другие торренты по теме:

  • Безумная парочка / Mad Buddies (2012) DVDRip | P
  • Безумная земля / Adama Meshugaat (2006) DVDRip от ClubTorrent
  • Безумная / I, madman (1989) HDTVRip-AVC | P, P2, A, L1
  • Сумасшедшая и красивый / Безумная и прекрасная / Crazy Beautiful / Crazy / Beautiful (2001) HDRip от Scarabey
  • Безумная свадьба / Quest-ce quon a fait au Bon Dieu (2014) HDRip | Чистый звук скачать через торрент бесплатно
  • Безумная свадьба / Quest-ce quon a fait au Bon Dieu
  • Цвет волшебства. Безумная звезда скачать через торрент бесплатно
  • Безумная свадьба / Quest-ce quon a fait au Bon Dieu (2014) BDRip 720p | Лицензия


    • Комментарии (0):

      Информация

      Информация

        Посетители, находящиеся в группе Гости, не могут оставлять комментарии в данной новости.

        ↓ Меню



        ↓ Опрос

        А Вы добавили сайт в закладки?
        Да
        Не


        Top 10 за месяц (Фильмы)