.
Авторизация | Регистрация
» » Ванильное небо / Vanilla Sky (2001) BDRip 1080p от BlueBird | Theatrical Cut скачать торрент бесплатно




    Ванильное небо / Vanilla Sky (2001) BDRip 1080p от BlueBird | Theatrical Cut скачать торрент бесплатно

    Опубликовал: Админ | Дата: 16-07-2015, 05:01 | Просмотров: 187


    Ванильное небо/Vanilla Sky

    Создали в: 2001
    Снималось в: США, Испания
    Киностудия: Paramount Pictures
    Слоган: Забудь все, что ты знал о жизни и просто раскрой глаза...
    Категория жанра: фантастика, фэнтези, триллер, мелодрама, детектив
    Время просмотра: 02: 16: 01
    Перевод текста:
    Профессиональный (дублированный) R5
    Профессиональный (многоголосый, закадровый) Карусель v.1*
    Профессиональный (многоголосый, закадровый) Карусель v.2*
    Профессиональный (многоголосый, закадровый) Медиакомплекс
    Профессиональный (многоголосый, закадровый) ТК ТНТ
    Профессиональный (многоголосый, закадровый) c DVD
    Профессиональный (многоголосый, закадровый) ТК К1
    Профессиональный (многоголосый, закадровый) ТК Новий
    Авторский (Владимир Завгородний)
    Авторский (Юрий Живов)
    Авторский (Алексей Багичев)
    ***озвучки Карусели различны (как по смыслу, так и по актерам)
    Главный режиссер: Кэмерон Кроу/Cameron Crowe
    Сценарий: Алехандро Аменабар/Alejandro Amen?bar, Матео Хиль/Mateo Gil, Кэмерон Кроу/Cameron Crowe
    Продюсер: Том Круз/Tom Cruise, Пола Вагнер/Paula Wagner, Кэмерон Кроу/Cameron Crowe, Билл Блок/Bill Block, Фернандо Бовайра/Fernando Bovaira
    Оператор: Джон Толл/John Toll
    Композитор: Нэнси Уилсон/Nancy Wilson

    Актеры

    Том Круз(David Aames) , Пенелопа Крус(Sofia Serrano) , Кэмерон Диаз(Julie Gianni) , Курт Рассел(McCabe) , Джейсон Ли(Brian Shelby) , Ноа Тейлор(Edmund Ventura) , Тимоти Сполл(Thomas Tipp) , Тильда Суинтон(Rebecca Dearborn) , Майкл Шеннон(Aaron) , Дилэйна Митчелл(David;s Assistant) , Шалом Харлоу(Colleen) , Оона Харт(Lynette)
    Дублёры: Сергей Быстрицкий (David Aames), Мария Овчинникова (Sofia Serrano), Марианна Шульц (Julie Gianni), Александр Клюквин (McCabe), Алексей Демидов (Brian Shelby), Сергей Чекан (Edmund Ventura), Виктор Петров (Thomas Tipp), Олег Куценко (Dr. Pomeranz), Всеволод Кузнецов (Conan O;Brien), Дмитрий Филимонов (Benny;s Owner)
    Бюджет: $68 000 000
    Маркетинг: $27 000 000
    Сборы в США: $100 618 344
    Сборы в мире: $203 388 341
    Мировая премьера: 10 декабря 2001
    Премьера (РФ): 24 января 2002, Ист-Вест
    Релиз на DVD: 21 апреля 2011, ВС трейд

    Описание фильма
    У Дэвида было всё: деньги, свой собственный издательский дом, дорогая машина и квартира в респектабельном районе Нью-Йорка, друг-писатель и подружка Джулианна, даже враги, в лице семи управляющих его компанией, тоже были. Так он и жил без оглядки, пока в один прекрасный момент не попал в автокатастрофу и очнулся после комы инвалидом с изуродованным лицом, которое приходится прикрывать эстетическим протезом. Его новая жизнь обернулась кошмарным сном, от которого нельзя проснуться...
    Рейтинг:

    MPAA: R- Лицам до 17 лет обязательно присутствие взрослого
    Релиз:
    Тип видео: Matroska
    Информация о видео: 1920x1080 at 23.976 fps, x264@L4.1, ~15.4 Mbps avg
    Информация о звуке#1: Russian: 48 kHz, AC3, 3/2 (L, C, R, l, r) + LFE ch, ~448 kbps avg |Дубляж, R5|
    Информация о звуке#2: Russian: 48 kHz, DTS, 3/2 (L, C, R, l, r) + LFE ch, ~1509.00 kbps avg |Многоголосый закадровый, Карусель v.1|
    Информация о звуке#3: Russian: 48 kHz, DTS, 3/2 (L, C, R, l, r) + LFE ch, ~1509.00 kbps avg |Многоголосый закадровый, Карусель v.2|
    Информация о звуке#4: Russian: 48 kHz, AC3, 3/2 (L, C, R, l, r) + LFE ch, ~448 kbps avg |Многоголосый закадровый, Медиакомплекс|
    Информация о звуке#5: Russian: 48 kHz, AC3, 2/0 (L, R) ch, ~192.00 kbps avg |Многоголосый закадровый, ТК ТНТ|
    Информация о звуке#6: Russian: 48 kHz, AC3, 2/0 (L, R) ch, ~192.00 kbps avg |Многоголосый закадровый, c DVD|
    Информация о звуке#7: Russian: 48 kHz, AC3, 3/2 (L, C, R, l, r) + LFE ch, ~448 kbps avg |Авторский, В.Завгородний|
    Информация о звуке#8: Russian: 48 kHz, AC3, 3/2 (L, C, R, l, r) + LFE ch, ~448 kbps avg |Авторский, Ю.Живов|
    Информация о звуке#9: Russian: 48 kHz, AC3, 3/2 (L, C, R, l, r) + LFE ch, ~448 kbps avg |Авторский, А.Багичев|
    Информация о звуке#10: Ukrainian: 48 kHz, AC3, 2/0 (L, R) ch, ~192.00 kbps avg |Многоголосый закадровый, ТК К1|
    Информация о звуке#11: Ukrainian: 48 kHz, AC3, 2/0 (L, R) ch, ~192.00 kbps avg |Многоголосый закадровый, ТК Новий|
    Информация о звуке#12: English: 48 kHz, DTS, 3/2 (L, C, R, l, r) + LFE ch, ~1509.00 kbps avg
    Субтитры: Russian, English
    Знаете ли Вы, что...
    В фильме Том Круз носит часы IWC Mark XV.
    На дне рождения Дэвида появляется Стивен Спилберг. Во время съемок Ванильного неба Спилберг и Том Круз как раз готовились к совместному проекту Особое мнение (2002).
    В фильме мелькнули кадры из фильма Роберта Маллигана Убить пересмешника (1962). Это один из самых любимых фильмов Кэмерона Кроу.
    Курт Рассел согласился сниматься в этом фильме, даже не читая сценарий.
    На роль доктора МакКейба претендовали Майкл Китон, Харрисон Форд и Алек Болдуин.
    Студия потребовала от Кэмерона Кроу вырезать из фильма кадры с разрушенными 11 сентября башнями Всемирного торгового центра. Кроу этого не сделал.
    Имя доктора МакКэйба, героя Курта Расселла, пришло из сольного альбома Жизнь в магазине гитар МакКэйба Нэнси Уилсон, жены Кэмерона Кроу.
    День рождения Дэвида Эймса - 22 сентября 1968.
    Кэмерон Кроу и Том Круз приглашали появиться в камео легендарного режиссёра Билли Уайлдера, однако тот отказался.
    Режиссер утверждает, что в фильме содержится 428 отсылок к различным культурным явлениям (книгам, фильмам, явлениям).
    В комнате Дэвида висят несколько картин Ральфа Бакши.
    Том Круз ездит на 1967 Ford Mustang и Ferrari 250 GTO.
    В спальне Дэвида висит плакат к фильму Франсуа Трюффо Жюль и Джим (1962). В финале героиня Трюффо скидывает машину со своим любовником с моста, что напрямую отсылает к сюжету Ванильного неба.
    Машина Кэмерон Диаз, на которой герои разбиваются, это 1970 Buick Skylark.
    MI
    Общее
    Уникальный идентификатор : 227467985255072672142097406702693509510 (0xAB20BD8C1D26147D84EF762F2641E986)
    Полное имя : Ванильное.небо_Vanilla.Sky.2001.BDRip.1080p.Theatrical Cut.NNM-CLUB.mkv
    Формат : Matroska
    Версия формата : Version 4/Version 2
    Размер файла : 21, 8 Гбайт
    Продолжительность : 2 ч. 16 м.
    Общий поток : 23, 0 Мбит/сек
    Название фильма : Ванильное.небо_Vanilla.Sky.2001.BDRip.1080p.Theatrical Cut
    Дата кодирования : UTC 2010-02-22 21: 41: 31
    Программа кодирования : mkvmerge v5.8.0 (;No Sleep/Pillow;) built on Nov 13 2012 19: 43: 22
    Библиотека кодирования : libebml v1.3.0 + libmatroska v1.4.0
    Видео
    Идентификатор : 1
    Формат : AVC
    Формат/Информация : Advanced Video Codec
    Профиль формата : High@L4.1
    Параметр CABAC формата : Да
    Параметр ReFrames формата : 4 кадра
    Идентификатор кодека : V_MPEG4/ISO/AVC
    Битрейт : 15, 4 Мбит/сек
    Ширина : 1920 пикселей
    Высота : 1080 пикселей
    Соотношение сторон : 16: 9
    Режим частоты кадров : Переменный
    Частота кадров в оригинале : 23, 976 кадра/сек
    Цветовое пространство : YUV
    Субдискретизация насыщенности : 4: 2: 0
    Битовая глубина : 8 бит
    Тип развёртки : Прогрессивная
    Бит/(Пиксели*Кадры) : 0.310
    Заголовок : Ванильное.небо_Vanilla.Sky.2001.BDRip.1080p.Theatrical Cut
    Библиотека кодирования : x264 core 146 r2538 121396c
    Настройки программы : cabac=1/ref=4/deblock=1: -3: -3/analyse=0x3: 0x133/me=umh/subme=10/psy=1/psy_rd=1.00: 0.15/mixed_ref=1/me_range=32/chroma_me=1/trellis=2/8x8dct=1/cqm=0/deadzone=21, 11/fast_pskip=0/chroma_qp_offset=-3/threads=12/lookahead_threads=2/sliced_threads=0/nr=0/decimate=1/interlaced=0/bluray_compat=0/constrained_intra=0/bframes=7/b_pyramid=2/b_adapt=2/b_bias=0/direct=3/weightb=1/open_gop=0/weightp=2/keyint=250/keyint_min=23/scenecut=40/intra_refresh=0/rc_lookahead=40/rc=2pass/mbtree=1/bitrate=15409/ratetol=1.0/qcomp=0.60/qpmin=0/qpmax=69/qpstep=4/cplxblur=20.0/qblur=0.5/vbv_maxrate=50000/vbv_bufsize=62500/nal_hrd=none/filler=0/ip_ratio=1.40/aq=1: 0.90
    Язык : English
    Default : Да
    Forced : Нет
    Аудио #1
    Идентификатор : 2
    Формат : AC-3
    Формат/Информация : Audio Coding 3
    Расширение режима : CM (complete main)
    Параметр Endianness формата : Big
    Идентификатор кодека : A_AC3
    Продолжительность : 2 ч. 16 м.
    Вид битрейта : Постоянный
    Битрейт : 448 Кбит/сек
    Каналы : 6 каналов
    Расположение каналов : Front: L C R, Side: L R, LFE
    Частота : 48, 0 КГц
    Метод сжатия : С потерями
    Размер потока : 436 Мбайт (2%)
    Заголовок : DUB - R5
    Язык : Russian
    Default : Да
    Forced : Нет
    Аудио #2
    Идентификатор : 3
    Формат : DTS
    Формат/Информация : Digital Theater Systems
    Режим : 16
    Параметр Endianness формата : Big
    Идентификатор кодека : A_DTS
    Продолжительность : 2 ч. 16 м.
    Вид битрейта : Постоянный
    Битрейт : 1509 Кбит/сек
    Каналы : 6 каналов
    Расположение каналов : Front: L C R, Side: L R, LFE
    Частота : 48, 0 КГц
    Битовая глубина : 24 бит
    Метод сжатия : С потерями
    Размер потока : 1, 43 Гбайт (7%)
    Заголовок : MVO - Карусель v.1
    Язык : Russian
    Default : Нет
    Forced : Нет
    Аудио #3
    Идентификатор : 4
    Формат : DTS
    Формат/Информация : Digital Theater Systems
    Режим : 16
    Параметр Endianness формата : Big
    Идентификатор кодека : A_DTS
    Продолжительность : 2 ч. 16 м.
    Вид битрейта : Постоянный
    Битрейт : 1509 Кбит/сек
    Каналы : 6 каналов
    Расположение каналов : Front: L C R, Side: L R, LFE
    Частота : 48, 0 КГц
    Битовая глубина : 24 бит
    Метод сжатия : С потерями
    Размер потока : 1, 43 Гбайт (7%)
    Заголовок : MVO - Карусель v.2
    Язык : Russian
    Default : Нет
    Forced : Нет
    Аудио #4
    Идентификатор : 5
    Формат : AC-3
    Формат/Информация : Audio Coding 3
    Расширение режима : CM (complete main)
    Параметр Endianness формата : Big
    Идентификатор кодека : A_AC3
    Продолжительность : 2 ч. 16 м.
    Вид битрейта : Постоянный
    Битрейт : 448 Кбит/сек
    Каналы : 6 каналов
    Расположение каналов : Front: L C R, Side: L R, LFE
    Частота : 48, 0 КГц
    Метод сжатия : С потерями
    Размер потока : 436 Мбайт (2%)
    Заголовок : MVO - Медиакомплекс
    Язык : Russian
    Default : Нет
    Forced : Нет
    Аудио #5
    Идентификатор : 6
    Формат : AC-3
    Формат/Информация : Audio Coding 3
    Профиль формата : Dolby Digital
    Расширение режима : CM (complete main)
    Параметр Endianness формата : Big
    Идентификатор кодека : A_AC3
    Продолжительность : 2 ч. 16 м.
    Вид битрейта : Постоянный
    Битрейт : 192 Кбит/сек
    Каналы : 2 канала
    Расположение каналов : Front: L R
    Частота : 48, 0 КГц
    Метод сжатия : С потерями
    Размер потока : 187 Мбайт (1%)
    Заголовок : MVO - ТК ТНТ
    Язык : Russian
    Default : Нет
    Forced : Нет
    Аудио #6
    Идентификатор : 7
    Формат : AC-3
    Формат/Информация : Audio Coding 3
    Профиль формата : Dolby Digital
    Расширение режима : CM (complete main)
    Параметр Endianness формата : Big
    Идентификатор кодека : A_AC3
    Продолжительность : 2 ч. 16 м.
    Вид битрейта : Постоянный
    Битрейт : 192 Кбит/сек
    Каналы : 2 канала
    Расположение каналов : Front: L R
    Частота : 48, 0 КГц
    Метод сжатия : С потерями
    Размер потока : 187 Мбайт (1%)
    Заголовок : MVO - c DVD
    Язык : Russian
    Default : Нет
    Forced : Нет
    Аудио #7
    Идентификатор : 8
    Формат : AC-3
    Формат/Информация : Audio Coding 3
    Расширение режима : CM (complete main)
    Параметр Endianness формата : Big
    Идентификатор кодека : A_AC3
    Продолжительность : 2 ч. 16 м.
    Вид битрейта : Постоянный
    Битрейт : 448 Кбит/сек
    Каналы : 6 каналов
    Расположение каналов : Front: L C R, Side: L R, LFE
    Частота : 48, 0 КГц
    Метод сжатия : С потерями
    Размер потока : 436 Мбайт (2%)
    Заголовок : VO - А.Завгородний
    Язык : Russian
    Default : Нет
    Forced : Нет
    Аудио #8
    Идентификатор : 9
    Формат : AC-3
    Формат/Информация : Audio Coding 3
    Расширение режима : CM (complete main)
    Параметр Endianness формата : Big
    Идентификатор кодека : A_AC3
    Продолжительность : 2 ч. 16 м.
    Вид битрейта : Постоянный
    Битрейт : 448 Кбит/сек
    Каналы : 6 каналов
    Расположение каналов : Front: L C R, Side: L R, LFE
    Частота : 48, 0 КГц
    Метод сжатия : С потерями
    Размер потока : 436 Мбайт (2%)
    Заголовок : VO - Ю.Живов
    Язык : Russian
    Default : Нет
    Forced : Нет
    Аудио #9
    Идентификатор : 10
    Формат : AC-3
    Формат/Информация : Audio Coding 3
    Расширение режима : CM (complete main)
    Параметр Endianness формата : Big
    Идентификатор кодека : A_AC3
    Продолжительность : 2 ч. 16 м.
    Вид битрейта : Постоянный
    Битрейт : 448 Кбит/сек
    Каналы : 6 каналов
    Расположение каналов : Front: L C R, Side: L R, LFE
    Частота : 48, 0 КГц
    Метод сжатия : С потерями
    Размер потока : 436 Мбайт (2%)
    Заголовок : VO - А.Багичев
    Язык : Russian
    Default : Нет
    Forced : Нет
    Аудио #10
    Идентификатор : 11
    Формат : AC-3
    Формат/Информация : Audio Coding 3
    Профиль формата : Dolby Digital
    Расширение режима : CM (complete main)
    Параметр Endianness формата : Big
    Идентификатор кодека : A_AC3
    Продолжительность : 2 ч. 16 м.
    Вид битрейта : Постоянный
    Битрейт : 192 Кбит/сек
    Каналы : 2 канала
    Расположение каналов : Front: L R
    Частота : 48, 0 КГц
    Метод сжатия : С потерями
    Размер потока : 187 Мбайт (1%)
    Заголовок : MVO - ТК К1
    Язык : Ukrainian
    Default : Нет
    Forced : Нет
    Аудио #11
    Идентификатор : 12
    Формат : AC-3
    Формат/Информация : Audio Coding 3
    Профиль формата : Dolby Digital
    Расширение режима : CM (complete main)
    Параметр Endianness формата : Big
    Идентификатор кодека : A_AC3
    Продолжительность : 2 ч. 16 м.
    Вид битрейта : Постоянный
    Битрейт : 192 Кбит/сек
    Каналы : 2 канала
    Расположение каналов : Front: L R
    Частота : 48, 0 КГц
    Метод сжатия : С потерями
    Размер потока : 187 Мбайт (1%)
    Заголовок : MVO - ТК Новий
    Язык : Ukrainian
    Default : Нет
    Forced : Нет
    Аудио #12
    Идентификатор : 13
    Формат : DTS
    Формат/Информация : Digital Theater Systems
    Режим : 16
    Параметр Endianness формата : Big
    Идентификатор кодека : A_DTS
    Продолжительность : 2 ч. 16 м.
    Вид битрейта : Постоянный
    Битрейт : 1509 Кбит/сек
    Каналы : 6 каналов
    Расположение каналов : Front: L C R, Side: L R, LFE
    Частота : 48, 0 КГц
    Битовая глубина : 24 бит
    Метод сжатия : С потерями
    Размер потока : 1, 43 Гбайт (7%)
    Заголовок : Оригинал
    Язык : English
    Default : Нет
    Forced : Нет
    Текст #1
    Идентификатор : 14
    Формат : UTF-8
    Идентификатор кодека : S_TEXT/UTF8
    Идентификатор кодека/Информация : UTF-8 Plain Text
    Язык : Russian
    Default : Нет
    Forced : Нет
    Текст #2
    Идентификатор : 15
    Формат : UTF-8
    Идентификатор кодека : S_TEXT/UTF8
    Идентификатор кодека/Информация : UTF-8 Plain Text
    Язык : English
    Default : Нет
    Forced : Нет
    Меню
    00: 00: 00.000 : en: Chapter 01
    00: 06: 24.300 : en: Chapter 02
    00: 10: 57.198 : en: Chapter 03
    00: 15: 10.701 : en: Chapter 04
    00: 19: 22.703 : en: Chapter 05
    00: 22: 46.865 : en: Chapter 06
    00: 27: 03.664 : en: Chapter 07
    00: 30: 29.953 : en: Chapter 08
    00: 37: 49.224 : en: Chapter 09
    00: 43: 36.113 : en: Chapter 10
    00: 51: 42.766 : en: Chapter 11
    00: 54: 52.456 : en: Chapter 12
    00: 59: 03.331 : en: Chapter 13
    01: 06: 41.246 : en: Chapter 14
    01: 10: 47.451 : en: Chapter 15
    01: 13: 08.091 : en: Chapter 16
    01: 20: 13.350 : en: Chapter 17
    01: 24: 01.328 : en: Chapter 18
    01: 28: 58.040 : en: Chapter 19
    01: 33: 06.663 : en: Chapter 20
    01: 35: 24.218 : en: Chapter 21
    01: 42: 40.361 : en: Chapter 22
    01: 45: 59.686 : en: Chapter 23
    01: 52: 34.038 : en: Chapter 24
    01: 57: 50.438 : en: Chapter 25
    02: 01: 42.002 : en: Chapter 26
    02: 06: 18.946 : en: Chapter 27
    02: 09: 20.460 : en: Chapter 28
    02: 15: 54.520 : en: Chapter 29
    Скриншоты


    Онлайн видео Ванильное небо


    Размер скачиваемого торрента: 21.81 GB (23413914319 Bytes)

    Ванильное небо/Vanilla Sky (2001) BDRip 1080p от BlueBird | Theatrical Cut
    загрузка...
    Рейтинг →
     (голосов: 1, оценка 3/5, голосовать можно 1 раз )

    Другие торренты по теме:

  • Ванильное небо / Vanilla Sky (2001) HDRip от Scarabey | D торрент скачать бесплатно
  • Ванильное небо / Vanilla Sky (2001) BDRip от HQCLUB | Лицензия скачать торрент бесплатно
  • Ванильное небо / Vanilla Sky (2001) BDRip 1080p от NNNB скачать торрент бесплатно
  • Ванильное небо / Vanilla Sky (2001) скачать торрент бесплатно
  • Ванильное небо / Vanilla Sky (2001) скачать торрент бесплатно


    • Комментарии (0):

      Информация

      Информация

        Посетители, находящиеся в группе Гости, не могут оставлять комментарии в данной новости.

        ↓ Меню



        ↓ Опрос

        А Вы добавили сайт в закладки?
        Да
        Не


        Top 10 за неделю (Фильмы)