.
Авторизация | Регистрация
Хочешь лучшие торренты? Добавь свой email!
Добавить
» » Землетрясение / Tangshan da dizhen (2010) BDRip 1080p от HQ-ViDEO | P2 торрент скачать бесплатно




    Землетрясение / Tangshan da dizhen (2010) BDRip 1080p от HQ-ViDEO | P2 торрент скачать бесплатно

    Опубликовал: Админ | Дата: 16-07-2015, 05:01 | Просмотров: 164


    Землетрясение/Пережившие ужас/Tangshan da dizhen/Aftershock (2010) BDRip 1080p
    Релиз от HQ-ViDEO

    Детально о кино
    Русское название: Землетрясение/Пережившие ужас
    Русское название в мировом прокате: Tangshan da dizhen/Aftershock
    Создали в: 2010
    Категория жанра: драма
    Главный режиссер: Фэн Сяоган /Fen Siaogan/

    Актеры
    Ван Цзывэнь /Ziwen Wang/, Юн Мэй /Mei Yong /, Чжан Гоцян /Clive Merrison/, Ли Чэн /Chen Li/, Чжан Цзинчу /Jingchu Zhang/, Лу И /Yi Lu/, Чен Цзинь /Jin Chen/, Чэнь Даомин /Daoming Chen/...

    Сюжет фильма

    Землетрясение в городе Таншане (провинция Хэбэй) 1976 года длилось меньше чем полминуты, но унесло несколько сотен тысяч жизней. Эти секунды поставили мать перед невозможным выбором — спасти сына или дочь, и спасение обернулось грузом вины на десятилетия.

    Снималось в: Китай
    Время просмотра: 02: 16: 05
    Перевод текста: Русский профессиональный, двухголосый (ВВС Saint-Petersburg) +Русский любительский, одноголосый перевод (@PD KaMo) (отдельно)
    Файл
    Кодек для видео: MKV, H.264
    Качество фильма: BDRip 1080p (Source: Blu-ray Disc)
    Информация о видео: 11.8 Mbps; 0.313 bit/pixel; 1920 x 816; 2.35: 1; 24 fps
    Информация о звуке #1: AC3 Dolby Digital; 448.00 kbps, 6 Ch - DVO
    Информация о звуке #2: AC3 Dolby Digital; 448.00 kbps, 6 Ch - VO @PD KaMo (отдельно/скачать с Яндекс Диск)
    Субтитры: Русские, Английские.
    Размер скачиваемого торрента: 12.21 GB
    SAMPLE/скачать с Яндекс Диск
    MediaInfo

    Общее
    Уникальный идентификатор : 223045126450740408972108496657075888474 (0xA7CCEDC5B68AF78E90D78D8F9303615A)
    Полное имя : Zemletryasenie.2010.RUS.BDRip.1080p.x264.AC3.-HQ-ViDEO.mkv
    Формат : Matroska
    Версия формата : Version 2
    Размер файла : 12, 2 Гбайт
    Продолжительность : 2 ч. 16 м.
    Общий поток : 12, 8 Мбит/сек
    Дата кодирования : UTC 2015-07-15 06: 32: 38
    Программа кодирования : mkvmerge v5.7.0 (;The Whirlwind;) built on Jul 8 2012 20: 08: 51
    Библиотека кодирования : libebml v1.2.3 + libmatroska v1.3.0
    Видео
    Идентификатор : 1
    Формат : AVC
    Формат/Информация : Advanced Video Codec
    Профиль формата : High@L4.1
    Параметр CABAC формата : Да
    Параметр ReFrames формата : 5 кадров
    Режим смешивания : Header stripping
    Идентификатор кодека : V_MPEG4/ISO/AVC
    Продолжительность : 2 ч. 16 м.
    Битрейт : 12, 4 Мбит/сек
    Ширина : 1920 пикселей
    Высота : 816 пикселей
    Соотношение сторон : 2, 35: 1
    Режим частоты кадров : Постоянный
    Частота кадров : 24, 000 кадра/сек
    Цветовое пространство : YUV
    Субдискретизация насыщенности : 4: 2: 0
    Битовая глубина : 8 бит
    Тип развёртки : Прогрессивная
    Бит/(Пиксели*Кадры) : 0.329
    Размер потока : 11, 5 Гбайт (95%)
    Заголовок : Aftershock.2010
    Библиотека кодирования : x264 core 102 r1666 d058f37
    Настройки программы : cabac=1/ref=5/deblock=1: -3: -3/analyse=0x3: 0x113/me=umh/subme=10/psy=1/psy_rd=1.10: 0.15/mixed_ref=1/me_range=48/chroma_me=1/trellis=2/8x8dct=1/cqm=2/deadzone=21, 11/fast_pskip=0/chroma_qp_offset=-2/threads=12/sliced_threads=0/nr=0/decimate=1/interlaced=0/constrained_intra=0/bframes=6/b_pyramid=2/b_adapt=2/b_bias=0/direct=3/weightb=1/open_gop=0/weightp=2/keyint=250/keyint_min=25/scenecut=40/intra_refresh=0/rc_lookahead=60/rc=2pass/mbtree=1/bitrate=12388/ratetol=2.0/qcomp=0.70/qpmin=10/qpmax=51/qpstep=4/cplxblur=20.0/qblur=0.5/vbv_maxrate=50000/vbv_bufsize=50000/ip_ratio=1.40/aq=1: 0.80/nal_hrd=none
    Язык : Chinese
    Default : Нет
    Forced : Нет
    Аудио
    Идентификатор : 2
    Формат : AC-3
    Формат/Информация : Audio Coding 3
    Расширение режима : CM (complete main)
    Параметр Endianness формата : Big
    Режим смешивания : Header stripping
    Идентификатор кодека : A_AC3
    Продолжительность : 2 ч. 16 м.
    Вид битрейта : Постоянный
    Битрейт : 448 Кбит/сек
    Каналы : 6 каналов
    Расположение каналов : Front: L C R, Side: L R, LFE
    Частота : 48, 0 КГц
    Метод сжатия : С потерями
    Размер потока : 436 Мбайт (3%)
    Заголовок : Профессиональный двухголосый закадровый, ВВС Saint-Petersburg 448 kbps
    Язык : Russian
    Default : Да
    Forced : Нет
    Текст #1
    Идентификатор : 3
    Формат : UTF-8
    Идентификатор кодека : S_TEXT/UTF8
    Идентификатор кодека/Информация : UTF-8 Plain Text
    Заголовок : srt_rus
    Язык : Russian
    Default : Нет
    Forced : Нет
    Текст #2
    Идентификатор : 4
    Формат : UTF-8
    Идентификатор кодека : S_TEXT/UTF8
    Идентификатор кодека/Информация : UTF-8 Plain Text
    Заголовок : srt_eng
    Язык : English
    Default : Нет
    Forced : Нет





    Релиз подготовил: HQ-ViDEO
    Автор рипа: CHD
    Автор релиза: Bermud

    Онлайн видео Землетрясение


    Размер скачиваемого торрента: 12.21 GB (13108999767 Bytes)

    Землетрясение/Tangshan da dizhen (2010) BDRip 1080p от HQ-ViDEO | P2
    загрузка...
    Рейтинг →
     (голосов: 1, оценка 3/5, голосовать можно 1 раз )

    Другие торренты по теме:

  • Землетрясение / Пережившие ужас / Таншаньское землетрясение / Tang shan da di zhen (2010) HDRip от Scarabey | D скачать через торрент бесплатно
  • Землетрясение / Earthquake (1974) BDRip 720p от MediaClub | P2
  • Землетрясение / Earthquake (1974) BDRip-AVC от MediaClub | P2
  • 03:34 Землетрясение в Чили / 03:34 Terremoto en Chile (2011) HDRip от ClubTorrent | P2 скачать через торрент бесплатно
  • Землетрясение в Сан - Андреас / San Andreas Quake (2015) HDRip | L1
  • Землетрясение в Сан - Андреас / San Andreas Quake (2015) BDRip 720p | L1
  • Землетрясение в Сан - Андреас / San Andreas Quake (2015) HDRip от -=HD-NET=- | КПК | L1
  • Землетрясение в Сан - Андреас / San Andreas Quake (2015) HDRip-AVC от -=HD-NET=- | L1


    • Комментарии (0):

      Информация

      Информация

        Посетители, находящиеся в группе Гости, не могут оставлять комментарии в данной новости.

        ↓ Меню



        ↓ Опрос

        А Вы добавили сайт в закладки?
        Да
        Не


        Top 10 за месяц (Фильмы)