.
Авторизация | Регистрация
» » Виплала / Wiplala (2014) BDRip 1080p | L1 скачать торрент бесплатно




    Виплала / Wiplala (2014) BDRip 1080p | L1 скачать торрент бесплатно

    Опубликовал: Админ | Дата: 21-07-2015, 05:01 | Просмотров: 180




    Детально о кино
    Русское название: Виплала
    Русское название в мировом прокате: Wiplala
    Создали в: 2014
    Категория жанра: Приключения, детские, семейные
    Главный режиссер: Тим Олихоек

    Актеры
    Питер Пол Мюллер, Геза Вайз, Як Воутерсе, Питер Ван ден Бегин, Кэс Джэнсен, Ганс Кестинг, Mamoun Elyounoussi, Рене Гротхоф, Морис Нэйтан Вирт, Ferdi Stofmeel


    Сюжет фильма
    Что не говори, но семью Бломов нельзя считать успешной. Ведь на плечи отца семейства после смерти супруги легла вся ответственность за двух несовершеннолетних детей. Да и должность учителя в местной школе – это не гарант финансового благополучия. Но самое главное – это то, что в этой семье никто не унывает, даже самый младший Йоханнес – самый впечатлительный и безропотный. И так уж случилось, что именно он обнаружил в своем доме на кухне маленького человечка, который очень любил арахисовое масло. И все бы ничего, но Йоханнес попросил своего гостя об одном одолжении.



    Снималось в: Нидерланды
    Время просмотра: 01: 40: 18
    Перевод текста: Любительский (одноголосый, закадровый)

    Файл
    Качество фильма: BDRip 1080p
    Тип видео: MKV
    Информация о видео: MPEG4/AVC, 15.3 Мбит/сек, 1920х804 (2.40: 1), 24.000 кадра/сек
    Информация о звуке 1: AC3, 2 канала, 384 Кбит/сек | Русский
    Информация о звуке 2: AC3, 6 каналов, 448 Кбит/сек | Голландский
    Субтитры: Русские, английские
    Навигация по главам: Есть

    MediaInfo:
    Общее
    Уникальный идентификатор : 222606782388762038933114996462640985424 (0xA77881BDD10AB7709D8ABF88DF587550)
    Полное имя : Wiplala. (2014) BDRip 1080p.mkv
    Формат : Matroska
    Версия формата : Version 2
    Размер файла : 11, 5 Гбайт
    Продолжительность : 1 ч. 40 м.
    Общий поток : 16, 4 Мбит/сек
    Название фильма : Wiplala. 2014
    Дата кодирования : UTC 2015-07-19 21: 47: 46
    Программа кодирования : mkvmerge v5.8.0 (;No Sleep/Pillow;) built on Sep 2 2012 15: 37: 04
    Библиотека кодирования : libebml v1.2.3 + libmatroska v1.3.0

    Видео
    Идентификатор : 1
    Формат : AVC
    Формат/Информация : Advanced Video Codec
    Профиль формата : High@L4.1
    Параметр CABAC формата : Да
    Параметр ReFrames формата : 2 кадра
    Идентификатор кодека : V_MPEG4/ISO/AVC
    Продолжительность : 1 ч. 40 м.
    Битрейт : 15, 3 Мбит/сек
    Ширина : 1920 пикселей
    Высота : 804 пикселя
    Соотношение сторон : 2, 40: 1
    Режим частоты кадров : Постоянный
    Частота кадров : 24, 000 кадра/сек
    Цветовое пространство : YUV
    Субдискретизация насыщенности : 4: 2: 0
    Битовая глубина : 8 бит
    Тип развёртки : Прогрессивная
    Бит/(Пиксели*Кадры) : 0.413
    Размер потока : 10, 7 Гбайт (93%)
    Заголовок : TBS
    Библиотека кодирования : x264 core
    Язык : Dutch
    Default : Да
    Forced : Нет
    Основные цвета : BT.709
    Характеристики трансфера : BT.709
    Коэффициенты матрицы : BT.709

    Аудио #1
    Идентификатор : 2
    Формат : AC-3
    Формат/Информация : Audio Coding 3
    Расширение режима : CM (complete main)
    Параметр Endianness формата : Big
    Идентификатор кодека : A_AC3
    Продолжительность : 1 ч. 40 м.
    Вид битрейта : Постоянный
    Битрейт : 384 Кбит/сек
    Каналы : 2 канала
    Расположение каналов : Front: L R
    Частота : 48, 0 КГц
    Битовая глубина : 16 бит
    Метод сжатия : С потерями
    Размер потока : 276 Мбайт (2%)
    Заголовок : L1
    Язык : Russian
    Default : Да
    Forced : Нет

    Аудио #2
    Идентификатор : 3
    Формат : AC-3
    Формат/Информация : Audio Coding 3
    Расширение режима : CM (complete main)
    Параметр Endianness формата : Big
    Идентификатор кодека : A_AC3
    Продолжительность : 1 ч. 40 м.
    Вид битрейта : Постоянный
    Битрейт : 448 Кбит/сек
    Каналы : 6 каналов
    Расположение каналов : Front: L C R, Side: L R, LFE
    Частота : 48, 0 КГц
    Битовая глубина : 16 бит
    Метод сжатия : С потерями
    Размер потока : 321 Мбайт (3%)
    Заголовок : Original
    Язык : Dutch
    Default : Нет
    Forced : Нет

    Текст #1
    Идентификатор : 4
    Формат : UTF-8
    Идентификатор кодека : S_TEXT/UTF8
    Идентификатор кодека/Информация : UTF-8 Plain Text
    Заголовок : Full
    Язык : Russian
    Default : Нет
    Forced : Нет

    Текст #2
    Идентификатор : 5
    Формат : UTF-8
    Идентификатор кодека : S_TEXT/UTF8
    Идентификатор кодека/Информация : UTF-8 Plain Text
    Заголовок : Full
    Язык : English
    Default : Нет
    Forced : Нет

    Меню
    00: 00: 00.000 : en: (01)00: 00: 00: 000
    00: 09: 53.083 : en: (02)00: 09: 53: 083
    00: 19: 35.041 : en: (03)00: 19: 35: 041
    00: 30: 13.000 : en: (04)00: 30: 13: 000
    00: 40: 27.000 : en: (05)00: 40: 27: 000
    00: 51: 18.666 : en: (06)00: 51: 18: 666
    01: 00: 23.041 : en: (07)01: 00: 23: 041
    01: 11: 26.000 : en: (08)01: 11: 26: 000
    01: 19: 37.000 : en: (09)01: 19: 37: 000
    01: 29: 06.416 : en: (10)01: 29: 06: 416
    01: 33: 32.208 : en: (11)01: 33: 32: 208
    01: 40: 19.000 : en: (12)01: 40: 19: 000



    Релиз подготовил:

    Онлайн видео Виплала


    Размер скачиваемого торрента: 11.52 GB (12370673224 Bytes)

    Виплала/Wiplala (2014) BDRip 1080p | L1
    загрузка...
    Рейтинг →
     (голосов: 1, оценка 5/5, голосовать можно 1 раз )

    Другие торренты по теме:

  • Виплала / Wiplala (2014) BDRip 1080p | L1 скачать торрент бесплатно
  • Виплала / Wiplala (2014) HDRip | L1 скачать торрент бесплатно


    • Комментарии (0):

      Информация

      Информация

        Посетители, находящиеся в группе Гости, не могут оставлять комментарии в данной новости.

        ↓ Меню



        ↓ Опрос

        А Вы добавили сайт в закладки?
        Да
        Не


        Top 10 за неделю (Фильмы)