.
Авторизация | Регистрация
Хочешь лучшие торренты? Добавь свой email!
Добавить
» » Подстава / The Set-Up (1949) DVDRip | 2xP торрент скачать бесплатно




    Подстава / The Set-Up (1949) DVDRip | 2xP торрент скачать бесплатно

    Опубликовал: Админ | Дата: 21-07-2015, 05:01 | Просмотров: 181



    Детально о кино
    Русское название: Подстава/Уговор
    Русское название в мировом прокате: The Set-Up
    Создали в: 1949
    Категория жанра: драма, нуар
    Главный режиссер: Роберт Уайз

    Актеры
    Роберт Райан, Одри Тоттер, Джордж Тобиаш, Алан Бакстер, Уоллес Форд, Перси Хелтон, Хэл Бэйлор, Дэррил Хикман, Кенни О’Моррисон, Джеймс Эдвардс

    Сюжет фильма
    Стокер Томпсон — стареющий боксёр, чья карьера подход к концу чередой неудач. В него уже не верит даже его менеджер Тайни, который принимает деньги за его поражение в будущем матче, забывая предупредить Стокера...

    Снималось в: США
    Время просмотра: 01: 12: 43
    Перевод текста 1: Профессиональный (многоголосый закадровый) - DVD Classic
    Перевод текста 2: Профессиональный (многоголосый закадровый) - Светла
    Файл
    Тип видео: AVI
    Качество фильма: DVDRip
    Информация о видео: 640x480 (1.33: 1), 23.976 fps, XviD build 73 ~2279 kbps avg, 0.31 bit/pixel
    Информация о звуке 1: 48 kHz, AC3 Dolby Digital, 1/0 (C) ch, ~192 kbps - DVD Classic
    Информация о звуке 2: 48 kHz, AC3 Dolby Digital, 2/0 (L, R) ch, ~192 kbps - Светла
    Информация о звуке 3: 48 kHz, AC3 Dolby Digital, 1/0 (C) ch, ~192 kbps - оригинал
    Скачать: Сэмпл
    Media Info
    Общее
    Полное имя : H: The.Set-Up.1949.dvdrip_1.46_teko.avi
    Формат : AVI
    Формат/Информация : Audio Video Interleave
    Размер файла : 1, 46 Гбайт
    Продолжительность : 1 ч. 12 м.
    Общий поток : 2875 Кбит/сек
    Программа кодирования : VirtualDubMod 1.5.10.3 | www.virtualdub-fr.org || (build 2550/release)
    Библиотека кодирования : VirtualDubMod build 2550/release
    Видео
    Идентификатор : 0
    Формат : MPEG-4 Visual
    Профиль формата : Advanced Simple@L5
    Параметр BVOP формата : 1
    Параметр QPel формата : Нет
    Параметр GMC формата : Без точки перехода
    Параметр матрицы формата : Выборочная
    Идентификатор кодека : XVID
    Идентификатор кодека/Подсказка : XviD
    Продолжительность : 1 ч. 12 м.
    Битрейт : 2281 Кбит/сек
    Ширина : 640 пикселей
    Высота : 480 пикселей
    Соотношение сторон : 4: 3
    Частота кадров : 23, 976 кадра/сек
    Цветовое пространство : YUV
    Субдискретизация насыщенности : 4: 2: 0
    Битовая глубина : 8 бит
    Тип развёртки : Прогрессивная
    Метод сжатия : С потерями
    Бит/(Пиксели*Кадры) : 0.310
    Размер потока : 1, 16 Гбайт (79%)
    Библиотека кодирования : XviD 73
    Аудио #1
    Идентификатор : 1
    Формат : AC-3
    Формат/Информация : Audio Coding 3
    Расширение режима : CM (complete main)
    Параметр Endianness формата : Big
    Идентификатор кодека : 2000
    Продолжительность : 1 ч. 12 м.
    Вид битрейта : Постоянный
    Битрейт : 192 Кбит/сек
    Каналы : 1 канал
    Расположение каналов : Front: C
    Частота : 48, 0 КГц
    Битовая глубина : 16 бит
    Метод сжатия : С потерями
    Размер потока : 99, 6 Мбайт (7%)
    Выравнивание : Разделение по промежуткам
    Продолжительность промежутка : 42 мс. (1, 00 видеокадр)
    Время предзагрузки промежутка : 500 мс.
    Аудио #2
    Идентификатор : 2
    Формат : AC-3
    Формат/Информация : Audio Coding 3
    Расширение режима : CM (complete main)
    Параметр Endianness формата : Big
    Идентификатор кодека : 2000
    Продолжительность : 1 ч. 12 м.
    Вид битрейта : Постоянный
    Битрейт : 192 Кбит/сек
    Каналы : 2 канала
    Расположение каналов : Front: L R
    Частота : 48, 0 КГц
    Битовая глубина : 16 бит
    Метод сжатия : С потерями
    Размер потока : 99, 6 Мбайт (7%)
    Выравнивание : Разделение по промежуткам
    Продолжительность промежутка : 42 мс. (1, 00 видеокадр)
    Время предзагрузки промежутка : 500 мс.
    Аудио #3
    Идентификатор : 3
    Формат : AC-3
    Формат/Информация : Audio Coding 3
    Расширение режима : CM (complete main)
    Параметр Endianness формата : Big
    Идентификатор кодека : 2000
    Продолжительность : 1 ч. 12 м.
    Вид битрейта : Постоянный
    Битрейт : 192 Кбит/сек
    Каналы : 1 канал
    Расположение каналов : Front: C
    Частота : 48, 0 КГц
    Битовая глубина : 16 бит
    Метод сжатия : С потерями
    Размер потока : 99, 9 Мбайт (7%)
    Выравнивание : Разделение по промежуткам
    Продолжительность промежутка : 42 мс. (1, 00 видеокадр)
    Время предзагрузки промежутка : 500 мс.

    Скриншоты

    Залил: gigauri

    Онлайн видео Подстава


    Размер скачиваемого торрента: 1.46 GB (1568589824 Bytes)

    Подстава/The Set-Up (1949) DVDRip | 2xP
    загрузка...
    Рейтинг →
     (голосов: 1, оценка 5/5, голосовать можно 1 раз )

    Другие торренты по теме:

  • Подстава (2012) DVB
  • Подстава / Setup (2011) BDRip-AVC | D скачать через торрент бесплатно
  • Подстава / Жизнь и смерть Бобби Зи / The Death and Life of Bobby Z (2006) BDRip-AVC от Dalemake | P


    • Комментарии (0):

      Информация

      Информация

        Посетители, находящиеся в группе Гости, не могут оставлять комментарии в данной новости.

        ↓ Меню



        ↓ Опрос

        А Вы добавили сайт в закладки?
        Да
        Не


        Top 10 за месяц (Фильмы)