.
Авторизация | Регистрация
Хочешь лучшие торренты? Добавь свой email!
Добавить
» » Сын Иисуса / Jesus Son (1999) DVDRip торрент скачать бесплатно




    Сын Иисуса / Jesus Son (1999) DVDRip торрент скачать бесплатно

    Опубликовал: Админ | Дата: 22-07-2015, 05:01 | Просмотров: 173



    Детально о кино
    Русское название: Сын Иисуса
    Русское название в мировом прокате: Jesus; Son
    Создали в: 1999
    Снималось в: США, Канада
    Категория жанра: Драма, Комедия
    Время просмотра: 01: 47: 27
    Перевод текста: Профессиональный (многоголосый, закадровый)
    Главный режиссер: Элисон Маклин

    Актеры
    Билли Крудап, Саманта Мортон, Майкл Шеннон, Дэнис Лири, Джек Блэк, Деннис Хоппер, Холли Хантер

    Сюжет фильма
    Блуждающий в своей хаотической жизни от одной неудачи к другой, главный герой горит сердечным желанием помочь всем вокруг себя, но постоянно терпит фиаско. И вот, путешествуя от полей Айовы через быстроменяющийся Чикаго к солнечному Фениксу, он обнаруживает, что маленькие радости от случайных встреч и есть то, к чему он бессознательно стремился и искал.


    Файл
    Качество фильма: DVDRip
    Информация о видео: DivX 5 672x288 (2.35: 1) 23.976fps 1365kbps
    Информация о звуке: Dolby AC3 48000Hz 6ch 448kbps
    Семпл
    MediaInfo
    General
    Complete name : Jesus.Son.1999.DVDRip.RUS.avi
    Format : AVI
    Format/Info : Audio Video Interleave
    File size : 1.37 GiB
    Duration : 1h 47mn
    Overall bit rate : 1 822 Kbps
    Writing application : VirtualDubMod 1.5.4.1 (build 2178/release)
    Writing library : VirtualDub build 35512/release
    Video
    ID : 0
    Format : MPEG-4 Visual
    Format settings, BVOP : 1
    Format settings, QPel : No
    Format settings, GMC : No warppoints
    Format settings, Matrix : Default (H.263)
    Muxing mode : Packed bitstream
    Codec ID : DX50
    Codec ID/Hint : DivX 5
    Duration : 1h 47mn
    Bit rate : 1 365 Kbps
    Width : 672 pixels
    Height : 288 pixels
    Display aspect ratio : 2.35: 1
    Frame rate : 23.976 fps
    Color space : YUV
    Chroma subsampling : 4: 2: 0
    Bit depth : 8 bits
    Scan type : Progressive
    Compression mode : Lossy
    Bits/(Pixel*Frame) : 0.294
    Stream size : 1.02 GiB (75%)
    Writing library : DivX 5.2.1 Beta (UTC 2004-09-08)
    Audio
    ID : 1
    Format : AC-3
    Format/Info : Audio Coding 3
    Mode extension : CM (complete main)
    Format settings, Endianness : Big
    Codec ID : 2000
    Duration : 1h 47mn
    Bit rate mode : Constant
    Bit rate : 448 Kbps
    Channel(s) : 6 channels
    Channel positions : Front: L C R, Side: L R, LFE
    Sampling rate : 48.0 KHz
    Bit depth : 16 bits
    Compression mode : Lossy
    Stream size : 344 MiB (25%)
    Alignment : Split accross interleaves
    Interleave, duration : 42 ms (1.00 video frame)
    Interleave, preload duration : 500 ms

    Скриншоты


    Онлайн видео Сын Иисуса


    Размер скачиваемого торрента: 1.37 GB (1469175666 Bytes)

    Сын Иисуса/Jesus Son (1999) DVDRip
    загрузка...
    Рейтинг →
     (голосов: 1, оценка 5/5, голосовать можно 1 раз )

    Другие торренты по теме:

  • Сын Иисуса / Jesus Son (1999) WEB-DL 1080p | P


    • Комментарии (0):

      Информация

      Информация

        Посетители, находящиеся в группе Гости, не могут оставлять комментарии в данной новости.

        ↓ Меню



        ↓ Опрос

        А Вы добавили сайт в закладки?
        Да
        Не


        Top 10 за месяц (Фильмы)