.
Авторизация | Регистрация
» » Убийство в Белом доме / Murder at 1600 (1997) HDTVRip от Leon-masl | D, A скачать торрент бесплатно




    Убийство в Белом доме / Murder at 1600 (1997) HDTVRip от Leon-masl | D, A скачать торрент бесплатно

    Опубликовал: Админ | Дата: 23-07-2015, 05:02 | Просмотров: 190



    Детально о кино
    Русское название: Убийство в Белом доме
    Русское название в мировом прокате: Murder at 1600
    Создали в: 1997
    Категория жанра: боевик, триллер, драма, криминал, детектив
    Главный режиссер: Дуайт Х. Литтл/Dwight H. Little

    Актеры
    Уэсли Снайпс, Дайан Лэйн, Дэниэл Бензали, Дэннис Миллер, Алан Алда, Ронни Кокс, Дайан Бэйкер, Тейт Донован, Харрис Юлин, Том Райт

    Сюжет фильма

    ахват американских заложников в Северной Корее вызвал бурю возмущения в Белом Доме. Президент Америки близок к тому, чтобы принять решение вмешаться и атаковать Корею. Тем временем в самом здании Белого Дома обнаружена убитая женщина, бывший секретарь.Расследование поручено полицейскому детективу Харлану Реджису, до этого не связанному с правительственными и секретными службами. Именно с последними он натыкается на стену глухого молчания. В этом деле ему не разобраться без помощи очаровательной женщины — секретного агента Нины Ченс, потому что кому, как не ей лучше знать секретную службу изнутри.

    Снималось в: США
    Время просмотра: 01: 46: 40
    Перевод текста: Дублированный (Варус Видео), Авторский (одноголосый закадровый) Ю.Живов
    Файл
    Кодек для видео: XviD
    Качество фильма: HDTVRip
    Информация о видео: 704x400, 23, 976 fps, XviD build 73 ~1570 kbps
    Информация о звуке 1: 48 kHz, AC3 Dolby Digital, 2/0 (L, R) ch, ~192.00 kbps......Профессиональный (полное дублирование) Варус Видео
    Информация о звуке 2: 48 kHz, AC3 Dolby Digital, 2/0 (L, R) ch, ~192.00 kbps......Авторский (одноголосый закадровый) Ю.Живов
    MI
    Общее
    Полное имя : Murder.At.1600.1997.HDTVRip.avi
    Формат : AVI
    Формат/Информация : Audio Video Interleave
    Размер файла : 1, 47 Гбайт
    Продолжительность : 1 ч. 46 м.
    Общий поток : 1968 Кбит/сек
    Программа кодирования : VirtualDubMod 1.5.10.2 (build 2542/release)
    Библиотека кодирования : VirtualDubMod build 2542/release
    Видео
    Идентификатор : 0
    Формат : MPEG-4 Visual
    Профиль формата : Advanced Simple@L5
    Параметр BVOP формата : 1
    Параметр QPel формата : Нет
    Параметр GMC формата : Без точки перехода
    Параметр матрицы формата : Выборочная
    Идентификатор кодека : XVID
    Идентификатор кодека/Подсказка : XviD
    Продолжительность : 1 ч. 46 м.
    Битрейт : 1570 Кбит/сек
    Ширина : 704 пикс.
    Высота : 400 пикс.
    Соотношение сторон : 16: 9
    Частота кадров : 23, 976 кадр/сек
    Цветовое пространство : YUV
    Подвыборка цветности : 4: 2: 0
    Битовая глубина : 8 бит
    Тип развёртки : Прогрессивная
    Метод сжатия : С потерями
    Бит/(Пиксели*Кадры) : 0.233
    Размер потока : 1, 17 Гбайт (80%)
    Библиотека кодирования : XviD 73
    Аудио #1
    Идентификатор : 1
    Формат : AC-3
    Формат/Информация : Audio Coding 3
    Расширение режима : CM (complete main)
    Идентификатор кодека : 2000
    Продолжительность : 1 ч. 46 м.
    Вид битрейта : Постоянный
    Битрейт : 192 Кбит/сек
    Канал(ы) : 2 канала(ов)
    Расположение каналов : Front: L R
    Частота : 48, 0 КГц
    Битовая глубина : 16 бит
    Метод сжатия : С потерями
    Размер потока : 146 Мбайт (10%)
    Выравнивание : Разделение по промежуткам
    Продолжительность промежутка : 42 мс. (1, 00 видеокадр)
    Время предзагрузки промежутка : 500 ms
    Аудио #2
    Идентификатор : 2
    Формат : AC-3
    Формат/Информация : Audio Coding 3
    Расширение режима : CM (complete main)
    Идентификатор кодека : 2000
    Продолжительность : 1 ч. 46 м.
    Вид битрейта : Постоянный
    Битрейт : 192 Кбит/сек
    Канал(ы) : 2 канала(ов)
    Расположение каналов : Front: L R
    Частота : 48, 0 КГц
    Битовая глубина : 16 бит
    Метод сжатия : С потерями
    Размер потока : 146 Мбайт (10%)
    Выравнивание : Разделение по промежуткам
    Продолжительность промежутка : 42 мс. (1, 00 видеокадр)
    Время предзагрузки промежутка : 500 ms
    Скриншоты

    Релиз подготовил: Leon-masl
    Залил: leon-masl

    Онлайн видео Убийство в Белом доме


    Размер скачиваемого торрента: 1.47 GB (1574645760 Bytes)

    Убийство в Белом доме/Murder at 1600 (1997) HDTVRip от Leon-masl | D, A
    загрузка...
    Рейтинг →
     (голосов: 1, оценка 5/5, голосовать можно 1 раз )

    Другие торренты по теме:

  • Убийство 3 / Forbrydelsen III (2012) HDTVRip 720p | Baibako торрент скачать бесплатно
  • Право на убийство / Righteous Kill (2008) HDRip от Scarabey | D торрент скачать бесплатно
  • Стаут Рекс - Подделка для убийства (1993) (2013) MP3 торрент скачать бесплатно
  • Убийство на удачу / Murder on Spec (2006) BDRip-AVC от Rulya74 | P торрент скачать бесплатно
  • Воспоминания об убийстве / Memories of Murder / Salinui chueok (2003) BDRip 1080p | P2 торрент скачать бесплатно
  • Идеальное убийство / A Perfect Murder (1998) BDRip 1080p торрент скачать бесплатно
  • Боязнь убийства / The Thrill of a Kill (2011) DVDRip | L1 торрент скачать бесплатно
  • Признание в убийстве / Я убийца / Confession of Murder (2012) HDTVRip | L2 торрент скачать бесплатно


    • Комментарии (0):

      Информация

      Информация

        Посетители, находящиеся в группе Гости, не могут оставлять комментарии в данной новости.

        ↓ Меню



        ↓ Опрос

        А Вы добавили сайт в закладки?
        Да
        Не


        Top 10 за неделю (Фильмы)