.
Авторизация | Регистрация
» » Солистка балета (1947) DVDRip от New-Team скачать торрент бесплатно




    Солистка балета (1947) DVDRip от New-Team скачать торрент бесплатно

    Опубликовал: Админ | Дата: 26-07-2015, 05:01 | Просмотров: 196



    Снималось в: СССР
    Создали в: Ленфильм
    Категория жанра: комедия, мелодрама, музыкальный
    Создали в: 1947
    Время просмотра: 01: 13: 11
    Перевод текста: Не требуется
    Субтитры подготовлены: нет
    Оригинальная аудиодорожка: русский
    Главный режиссер: Александр Ивановский

    Актеры

    Мира Редина, Виктор Казанович, Ольга Жизнева, Владимир Гардин, Галина Уланова, Владимир Преображенский, Нонна Ястребова, Нина Болдырева, Константин Адашевский, Александр Орлов, Фёдор Курихин...
    Описание:
    Наташа Субботина, заканчивая хореографическое училище, готовит партию Авроры в балете П. Чайковского Спящая красавица. Юная балерина не хочет повторять найденный когда-то Мариусом Петипа рисунок танца и стремится внести в него свежие краски. Нелегко найдёт она новое решение. Не сразу сложатся у Наташи и отношения с влюблённым в неё студентом Консерватории Алексеем. В фильме использованы фрагменты из балета П. Чайковского Лебединое озеро с участием Галины Улановой.



    Источник: DVD5 R5
    Качество фильма видео: DVDRip
    Тип видео видео: AVI
    Информация о видео: 640x480 (4: 3), 25 fps, XviD ~ 1295 kbps avg, 0.169 bit/pixel
    Информация о звуке: 48 kHz, MP3 2.0, 128 kbps
    Раздача от:
    MediaInfo

    Общее
    Полное имя : Solistka.baleta.1947.DVDRip-745_New-team_by_AVP_Studio.avi
    Формат : AVI
    Формат/Информация : Audio Video Interleave
    Размер файла : 750 Мбайт
    Продолжительность : 1 ч. 13 м.
    Общий поток : 1433 Кбит/сек
    Программа кодирования : VirtualDubModRus 1.5.10.2 (build 2542/release)
    Библиотека кодирования : VirtualDubMod build 2542/release
    Видео
    Идентификатор : 0
    Формат : MPEG-4 Visual
    Профиль формата : Advanced Simple@L5
    Параметр BVOP формата : 1
    Параметр QPel формата : Нет
    Параметр GMC формата : Без точки перехода
    Параметр матрицы формата : Выборочная
    Идентификатор кодека : XVID
    Идентификатор кодека/Подсказка : XviD
    Продолжительность : 1 ч. 13 м.
    Битрейт : 1295 Кбит/сек
    Ширина : 640 пикселей
    Высота : 480 пикселей
    Соотношение сторон : 4: 3
    Частота кадров : 25, 000 кадров/сек
    Цветовое пространство : YUV
    Субдискретизация насыщенности : 4: 2: 0
    Битовая глубина : 8 бит
    Тип развёртки : Прогрессивная
    Метод сжатия : С потерями
    Бит/(Пиксели*Кадры) : 0.169
    Размер потока : 678 Мбайт (90%)
    Библиотека кодирования : XviD 73
    Аудио
    Идентификатор : 1
    Формат : MPEG Audio
    Версия формата : Version 1
    Профиль формата : Layer 3
    Идентификатор кодека : 55
    Идентификатор кодека/Подсказка : MP3
    Продолжительность : 1 ч. 13 м.
    Вид битрейта : Постоянный
    Битрейт : 128 Кбит/сек
    Каналы : 2 канала
    Частота : 48, 0 КГц
    Метод сжатия : С потерями
    Размер потока : 67, 0 Мбайт (9%)
    Выравнивание : Соединение по промежуткам
    Продолжительность промежутка : 40 мс. (1, 00 видеокадр)
    Время предзагрузки промежутка : 504 мс.
    Библиотека кодирования : LAME3.99r
    Залил: AVPStudio

    Онлайн видео Солистка балета (1947) DVDRip от New


    Размер скачиваемого торрента: 750.01 MB (786440192 Bytes)


    Солистка балета (1947) DVDRip от New-Team
    загрузка...
    Рейтинг →
     (голосов: 1, оценка 3/5, голосовать можно 1 раз )

    Другие торренты по теме:



      Комментарии (0):

      Информация

      Информация

        Посетители, находящиеся в группе Гости, не могут оставлять комментарии в данной новости.

        ↓ Меню



        ↓ Опрос

        А Вы добавили сайт в закладки?
        Да
        Не


        Top 10 за неделю (Фильмы)